.
Авторизация | Регистрация
» » Место встречи изменить нельзя (1979) DVDRip от GeneralFilm скачать торрент бесплатно




    Место встречи изменить нельзя (1979) DVDRip от GeneralFilm скачать торрент бесплатно

    Опубликовал: Админ | Дата: 27-07-2015, 05:00 | Просмотров: 227



    Детально о кино
    Русское название: Место встречи изменить нельзя
    Создали в: 1979
    Категория жанра: боевик, криминал, детектив, приключения
    Главный режиссер: Станислав Говорухин

    Актеры
    Владимир Высоцкий, Евгений Евстигнеев, Владимир Конкин, Армен Джигарханян, Александр Белявский, Зиновий Гердт, Иван Бортник, Андрей Градов, Екатерина Градова, Наталья Данилова, Всеволод Абдулов, Евгений Леонов-Гладышев, Лев Перфилов, Станислав Садальский, Евгений Шутов, Лариса Удовиченко, Сергей Юрский, Наталья Фатеева, Виктор Павлов, Леонид Куравлев, Александр Абдулов, Светлана Светличная, Наталья Крачковская, Валерия Заклунная

    Сюжет фильма
    Убийства, засады, погони, перестрелки — на фоне послевоенной Москвы. Сотрудники МУРа против таинственной и неуловимой банды Черная кошка. Демобилизовавшийся офицер разведки Володя Шарапов начинает работать в отделе по борьбе с бандитизмом. Одно из первых дел, в расследовании которых он участвует, — убийство Ларисы Груздевой…
    Снималось в: СССР
    Время просмотра: 5 x ~ 01: 15: 00
    Перевод текста: Не требуется
    Файл
    Кодек для видео: XviD
    Качество фильма: DVDRip
    Информация о видео: XviD, 704x544 (1.29: 4), 25 fps, ~ 1300 kbps
    Информация о звуке: AC3, 48 kHz, 3/2 (L, C, R, l, r) + LFE ch, ~384.00 kbps
    МедиаИнфо
    Общее
    Полное имя : Mesto.vstrechi.izmenitj.neljzja.1979.XviD.DVDRip.by.GeneralFilmserija.01.avi
    Формат : AVI
    Формат/Информация : Audio Video Interleave
    Размер файла : 890 Мбайт
    Продолжительность : 1 ч. 6 м.
    Общий поток : 1865 Кбит/сек
    Программа кодирования : VirtualDubMod 1.5.10.3 | www.virtualdub-fr.org || (build 2550/release)
    Библиотека кодирования : VirtualDubMod build 2550/release
    Видео
    Идентификатор : 0
    Формат : MPEG-4 Visual
    Профиль формата : Advanced Simple@L5
    Параметр BVOP формата : 1
    Параметр QPel формата : Нет
    Параметр GMC формата : Без точки перехода
    Параметр матрицы формата : Выборочная
    Идентификатор кодека : XVID
    Идентификатор кодека/Подсказка : XviD
    Продолжительность : 1 ч. 6 м.
    Битрейт : 1471 Кбит/сек
    Ширина : 704 пикселя
    Высота : 544 пикселя
    Соотношение сторон : 1, 294
    Частота кадров : 25, 000 кадров/сек
    Цветовое пространство : YUV
    Субдискретизация насыщенности : 4: 2: 0
    Битовая глубина : 8 бит
    Тип развёртки : Прогрессивная
    Метод сжатия : С потерями
    Бит/(Пиксели*Кадры) : 0.154
    Размер потока : 702 Мбайт (79%)
    Библиотека кодирования : XviD 73
    Аудио
    Идентификатор : 1
    Формат : AC-3
    Формат/Информация : Audio Coding 3
    Расширение режима : CM (complete main)
    Параметр Endianness формата : Big
    Идентификатор кодека : 2000
    Продолжительность : 1 ч. 6 м.
    Вид битрейта : Постоянный
    Битрейт : 384 Кбит/сек
    Каналы : 6 каналов
    Расположение каналов : Front: L C R, Side: L R, LFE
    Частота : 48, 0 КГц
    Метод сжатия : С потерями
    Размер потока : 183 Мбайт (21%)
    Выравнивание : Разделение по промежуткам
    Продолжительность промежутка : 40 мс. (1, 00 видеокадр)
    Время предзагрузки промежутка : 500 мс.

    Семпл
    http://sendfile.su/1140490

    Скриншоты














    Релиз подготовил:
    Залил: vsobbol

    Онлайн видео Вычислитель (2014) BDRemux 1080i


    Размер скачиваемого торрента: 4.35 GB (4670015488 Bytes)

    Место встречи изменить нельзя (1979) DVDRip от GeneralFilm
    загрузка...
    Рейтинг →
     (голосов: 1, оценка 5/5, голосовать можно 1 раз )

    Другие торренты по теме:

  • VA - Место Встречи Дискотека. Выпуск 4 (1988) MP3 скачать торрент бесплатно
  • Странное место для встречи / Drole dendroit pour une rencontre (1988) DVDRip от Киномагия | P торрент скачать бесплатно


    • Комментарии (0):

      Информация

      Информация

        Посетители, находящиеся в группе Гости, не могут оставлять комментарии в данной новости.

        ↓ Меню



        ↓ Опрос

        А Вы добавили сайт в закладки?
        Да
        Не


        Top 10 за неделю (Фильмы)