.
Авторизация | Регистрация
Хочешь лучшие торренты? Добавь свой email!
Добавить
» » Дикие лошади / Wild Horses (2015) DVD5 от NovaLan торрент скачать бесплатно




    Дикие лошади / Wild Horses (2015) DVD5 от NovaLan торрент скачать бесплатно

    Опубликовал: Админ | Дата: 1-08-2015, 05:09 | Просмотров: 175



    Детально о кино
    Русское название: Дикие лошади
    Русское название в мировом прокате: Wild Horses
    Создали в: 2015
    Категория жанра: Драма, криминал
    Главный режиссер: Роберт Дювалл

    Актеры
    Роберт Дювалл, Джеймс Франко, Джош Хартнетт, Лусиана Педраса, Энджи Сепеда, Джим Пэррак, Адриана Барраса, Хоакин Джексон, Кристиан Дженсен

    Сюжет фильма
    Техасские рейнджеры расследуют исчезновение мальчика, произошедшее пятнадцать лет назад. Улики приводят их на ферму, однако нынешний ее владелец отказывается от какого-либо сотрудничества.

    Время просмотра: 01: 43: 31
    Перевод текста: Любительский двухголосый (Sunny-Films)
    Файл
    Кодек для видео: MPEG-2
    Качество фильма: DVD-9
    Информация о видео: MPEG2, NTSC 16: 9 (720x480@853x480) VBR, 23, 976 кадра/сек
    Информация о звуке: Русский DD 2.0 (192 Kbps), Английский DD 5.1 (384 Kbps)
    Меню
    DVDInfo
    Title: Локальный диск
    Size: 4.37 Gb ( 4 577 692 KBytes ) - DVD-5
    Enabled regions: 1, 2, 3, 4, 5, 6, 7, 8
    VTS_01 :
    Play Length: 01: 43: 31
    Video: NTSC 16: 9 (720x480) VBR, Auto PanScan
    Audio:
    Russian (Dolby AC3, 2 ch)
    English (Dolby AC3, 6 ch)
    Menu Video:
    NTSC 4: 3 (704x480) VBR
    Menu English Language Unit :
    Root Menu
    MediaInfo
    бщее
    Полное имя : D: 1АААДикие лошадиVIDEO_TSVTS_01_1.VOB
    Формат : MPEG-PS
    Размер файла : 1024 Мбайт
    Продолжительность : 22 м.
    Режим общего битрейта : Переменный
    Общий поток : 6428 Кбит/сек
    Видео
    Идентификатор : 224 (0xE0)
    Формат : MPEG Video
    Версия формата : Version 2
    Профиль формата : Main@Main
    Параметр BVOP формата : Да
    Параметр матрицы формата : По умолчанию
    Параметр GOP формата : M=3, N=12
    Продолжительность : 22 м.
    Вид битрейта : Переменный
    Битрейт : 5724 Кбит/сек
    Максимальный битрейт : 8816 Кбит/сек
    Ширина : 720 пикселей
    Высота : 480 пикселей
    Соотношение сторон : 16: 9
    Частота кадров : 23, 976 кадра/сек
    Стандарт вещания : NTSC
    Цветовое пространство : YUV
    Субдискретизация насыщенности : 4: 2: 0
    Битовая глубина : 8 бит
    Тип развёртки : Прогрессивная
    Порядок развёртки : 2: 3 Pulldown
    Метод сжатия : С потерями
    Бит/(Пиксели*Кадры) : 0.691
    TimeCode_FirstFrame : 00: 00: 00;00
    TimeCode_Source : Group of pictures t_head
    Размер потока : 912 Мбайт (89%)
    Аудио #1
    Идентификатор : 189 (0xBD)-128 (0x80)
    Формат : AC-3
    Формат/Информация : Audio Coding 3
    Расширение режима : CM (complete main)
    Параметр Endianness формата : Big
    Режим смешивания : DVD-Video
    Продолжительность : 22 м.
    Вид битрейта : Постоянный
    Битрейт : 192 Кбит/сек
    Каналы : 2 канала
    Расположение каналов : Front: L R
    Частота : 48, 0 КГц
    Битовая глубина : 16 бит
    Метод сжатия : С потерями
    Размер потока : 30, 6 Мбайт (3%)
    Аудио #2
    Идентификатор : 189 (0xBD)-129 (0x81)
    Формат : AC-3
    Формат/Информация : Audio Coding 3
    Расширение режима : CM (complete main)
    Параметр Endianness формата : Big
    Режим смешивания : DVD-Video
    Продолжительность : 22 м.
    Вид битрейта : Постоянный
    Битрейт : 384 Кбит/сек
    Каналы : 6 каналов
    Расположение каналов : Front: L C R, Side: L R, LFE
    Частота : 48, 0 КГц
    Битовая глубина : 16 бит
    Метод сжатия : С потерями
    Размер потока : 61, 2 Мбайт (6%)
    Меню


    Скриншоты

    Релиз: 089233
    Залил: YArl

    Онлайн видео Дикие лошади


    Размер скачиваемого торрента: 4.37 GB (4687556608 Bytes)

    Дикие лошади/Wild Horses (2015) DVD5 от NovaLan
    загрузка...
    Рейтинг →
     (голосов: 1, оценка 4/5, голосовать можно 1 раз )

    Другие торренты по теме:

  • Дикие лошади / Wild Horses (2015) HDRip | L1
  • Дикие лошади / Wild Horses (2015) HDRip от torrentfilm | L1
  • Дикие лошади / Wild Horses (2015) BDRip 720p | L1


    • Комментарии (0):

      Информация

      Информация

        Посетители, находящиеся в группе Гости, не могут оставлять комментарии в данной новости.

        ↓ Меню



        ↓ Опрос

        А Вы добавили сайт в закладки?
        Да
        Не


        Top 10 за месяц (Фильмы)