.
Авторизация | Регистрация
» » Драгоценные зерна (1948) SATRip от New-Team скачать торрент бесплатно




    Драгоценные зерна (1948) SATRip от New-Team скачать торрент бесплатно

    Опубликовал: Админ | Дата: 2-08-2015, 18:29 | Просмотров: 234



    Снималось в: СССР
    Создали в: Ленфильм
    Категория жанра: комедия
    Создали в: 1948
    Время просмотра: 01: 27: 12
    Перевод текста: Не требуется
    Субтитры подготовлены: нет
    Оригинальная аудиодорожка: русский
    Главный режиссер: Иосиф Хейфиц, Александр Зархи

    Актеры

    Галина Кожакина, Борис Жуковский, Олег Жаков, Павел Кадочников, Василий Ванин, Валентина Телегина, Петр Алейников, Ростислав Плятт, Павел Оленев, Ольга Аросева, Сергей Филиппов, Людмила Шабалина, Николай Дорохин, Александр Мельников, Татьяна Пельтцер, Борис Кудряшов, Виктор Хохряков, Николай Горлов, Иван Назаров, Вера Романова, Елизавета Уварова, Елена Шатрова, Александра Тришко, Анатолий Абрамов...
    Описание:
    Для подготовки дипломной работы молодую журналистку направляют в район. Здесь героине предстоит самостоятельно выпустить несколько номеров газеты, познакомиться с новыми людьми, разобраться в их поступках и в самой себе…



    Источник: DVB
    Качество фильма видео: SATRip
    Тип видео видео: AVI
    Информация о видео: 640x480 (4: 3), 25 fps, XviD ~ 1058 kbps avg, 0.138 bit/pixel
    Информация о звуке: 48 kHz, MP3 2.0, 128 kbps
    Раздача от:
    MediaInfo

    Общее
    Полное имя : Dragocennye.zerna.1948.SATRip-745_New-team_by_AVP_Studio.avi
    Формат : AVI
    Формат/Информация : Audio Video Interleave
    Размер файла : 746 Мбайт
    Продолжительность : 1 ч. 27 м.
    Общий поток : 1196 Кбит/сек
    Программа кодирования : VirtualDubMod 1.5.10.3 | www.virtualdub-fr.org || (build 2550/release)
    Библиотека кодирования : VirtualDubMod build 2550/release
    Видео
    Идентификатор : 0
    Формат : MPEG-4 Visual
    Профиль формата : Advanced Simple@L5
    Параметр BVOP формата : 1
    Параметр QPel формата : Нет
    Параметр GMC формата : Без точки перехода
    Параметр матрицы формата : Выборочная
    Идентификатор кодека : XVID
    Идентификатор кодека/Подсказка : XviD
    Продолжительность : 1 ч. 27 м.
    Битрейт : 1058 Кбит/сек
    Ширина : 640 пикселей
    Высота : 480 пикселей
    Соотношение сторон : 4: 3
    Частота кадров : 25, 000 кадров/сек
    Цветовое пространство : YUV
    Субдискретизация насыщенности : 4: 2: 0
    Битовая глубина : 8 бит
    Тип развёртки : Прогрессивная
    Метод сжатия : С потерями
    Бит/(Пиксели*Кадры) : 0.138
    Размер потока : 660 Мбайт (88%)
    Библиотека кодирования : XviD 73
    Аудио
    Идентификатор : 1
    Формат : MPEG Audio
    Версия формата : Version 1
    Профиль формата : Layer 3
    Идентификатор кодека : 55
    Идентификатор кодека/Подсказка : MP3
    Продолжительность : 1 ч. 27 м.
    Вид битрейта : Постоянный
    Битрейт : 128 Кбит/сек
    Каналы : 2 канала
    Частота : 48, 0 КГц
    Метод сжатия : С потерями
    Размер потока : 79, 8 Мбайт (11%)
    Выравнивание : Соединение по промежуткам
    Продолжительность промежутка : 40 мс. (1, 00 видеокадр)
    Время предзагрузки промежутка : 504 мс.
    Библиотека кодирования : LAME3.99r
    Залил: AVPStudio
    Размер скачиваемого торрента: 745.70 MB (781926400 Bytes)


    Драгоценные зерна (1948) SATRip от New-Team
    загрузка...
    Рейтинг →
     (голосов: 1, оценка 3/5, голосовать можно 1 раз )

    Другие торренты по теме:

  • Л. Бондарчук - Драгоценная энциклопедия охотника (2012) PDF торрент скачать бесплатно
  • Лонгчен Рабжам (Лонгченпа) - Отрывки из книг: Драгоценная сокровищница Дхармадхату , Великий Гаруда - Крылья совершенства, Корабль из драгоценных камней (2014) MP3 торрент скачать бесплатно
  • Керстин Гир - Трилогия драгоценных камней: Рубиновая книга, Сапфировая книга, Изумрудная книга (2012) FB2 торрент скачать бесплатно
  • Свами Вишну Дев - Освобождающий нектар драгоценных наставлений (2015) MP3 скачать торрент бесплатно
  • Драгоценный подарок / 1956 / РУ / DVDRip скачать торрент бесплатно
  • Балет - Драгоценности (2016) WEB-DLRip от Files-х скачать торрент бесплатно
  • Драгоценный подарок (1956) DVDRip от New-Team скачать торрент бесплатно


    • Комментарии (0):

      Информация

      Информация

        Посетители, находящиеся в группе Гости, не могут оставлять комментарии в данной новости.

        ↓ Меню



        ↓ Опрос

        А Вы добавили сайт в закладки?
        Да
        Не


        Top 10 за неделю (Фильмы)