.
Авторизация | Регистрация
Хочешь лучшие торренты? Добавь свой email!
Добавить




Реальный папа (2008) DVDRip-AVC торрент скачать бесплатно

Опубликовал: Админ | Дата: 2-08-2015, 18:29 | Просмотров: 266



Детально о кино
Русское название в мировом прокате: Реальный папа
Создали в: 2008
Категория жанра: Комедия
Главный режиссер: Сергей Бобров

Актеры
Михаил Пореченков, Светлана Ходченкова, Александр Дедюшко, Евгения Добровольская, Алексей Огурцов, Владимир Пермяков, Алексей Шевченков, Дмитрий Бобров, Александра Скачкова

Сюжет фильма

Быт Романа Шило можно назвать устоявшимся, или однообразным – как посмотреть. Ему под сорок, он холостяк, жизнь которого течет по стандартному кругу – работа-дом, дом-работа. Свои одинокие вечера Роман посвящает единственной страсти – сборке управляемых авиамоделей, и, похоже, Романа вполне устраивает такое течение жизни. Катастрофа происходит, когда на голову Романа, откуда ни возьмись, обрушивается привет из прошлого – четырнадцатилетняя дочь от неудавшегося брака Таня, и не одна, а с пятилетним братиком и двухлетней сестренкой, которых успела завести мать Тани от других мужей. Назвать этих детей трудными значило бы приукрасить правду. Они - ходячий букет проблем, который ломает налаженную жизнь Шило, его быт, и, главное, работу. А работает Роман разводящим в районной криминальной группировке, и его рукам куда привычнее держать пистолет, чем детскую бутылочку. Но с этого момента Роману приходится рулить и детскими проблемами: устраивать разборки с учителями, тёрки с воспитателями детского сада, пытаться навести хоть какой-то порядок в сумасшедшем доме, в который превратилась его жизнь. В непривычной суматохе Роман не замечает происшедшей смены ролей – теперь дети, их нужды, и их проблемы рулят Романом.

Снималось в: Россия, Рекун-ТВ
Время просмотра: 01: 27: 37
Тип перевода: Оригинал
Файл
Тип видео: MKV
Качество фильма: DVDRip-AVC
Информация о видео: 704x288 (2.40: 1), 25 fps, x264 ~2004 kbps avg, 0.395 bit/pixel
Информация о звуке: 48 kHz, Audio Coding 3, 6 ch, Front: L C R, Side: L R, LFE, ~384 kbps avg
Размер скачиваемого торрента: 1.46 GB
MI
Формат : Matroska
Версия формата : Version 4/Version 2
Размер файла : 1, 46 Гбайт
Продолжительность : 1 ч. 27 м.
Общий поток : 2390 Кбит/сек
Название фильма : Реальный папа by sergey07
Дата кодирования : UTC 2015-07-31 12: 50: 29
Программа кодирования : mkvmerge v7.6.0 (;Garden of Dreams;) 64bit built on Feb 8 2015 13: 04: 34
Библиотека кодирования : libebml v1.3.1 + libmatroska v1.4.2
DURATION : 01: 27: 37.216000000
NUMBER_OF_FRAMES : 164288
NUMBER_OF_BYTES : 252346368
_STATISTICS_WRITING_APP : mkvmerge v7.6.0 (;Garden of Dreams;) 64bit built on Feb 8 2015 13: 04: 34
_STATISTICS_WRITING_DATE_UTC : 2015-07-31 12: 50: 29
_STATISTICS_TAGS : BPS DURATION NUMBER_OF_FRAMES NUMBER_OF_BYTES
Видео
Идентификатор : 1
Формат : AVC
Формат/Информация : Advanced Video Codec
Профиль формата : High@L4.1
Параметр CABAC формата : Да
Параметр ReFrames формата : 12 кадров
Идентификатор кодека : V_MPEG4/ISO/AVC
Продолжительность : 1 ч. 27 м.
Битрейт : 2004 Кбит/сек
Ширина : 704 пикселя
Высота : 288 пикселей
Соотношение сторон : 2, 40: 1
Режим частоты кадров : Постоянный
Частота кадров : 25, 000 кадров/сек
Цветовое пространство : YUV
Субдискретизация насыщенности : 4: 2: 0
Битовая глубина : 8 бит
Тип развёртки : Прогрессивная
Бит/(Пиксели*Кадры) : 0.395
Размер потока : 1, 20 Гбайт (82%)
Библиотека кодирования : x264 core 142 r2431 ac76440
Настройки программы : cabac=1/ref=12/deblock=1: -1: -1/analyse=0x3: 0x113/me=umh/subme=11/psy=1/psy_rd=1.00: 0.00/mixed_ref=1/me_range=32/chroma_me=1/trellis=2/8x8dct=1/cqm=0/deadzone=21, 11/fast_pskip=1/chroma_qp_offset=-4/threads=12/lookahead_threads=2/sliced_threads=0/nr=0/decimate=1/interlaced=0/bluray_compat=0/constrained_intra=0/bframes=11/b_pyramid=2/b_adapt=2/b_bias=0/direct=1/weightb=1/open_gop=0/weightp=2/keyint=250/keyint_min=25/scenecut=40/intra_refresh=0/rc_lookahead=40/rc=2pass/mbtree=1/bitrate=2004/ratetol=1.0/qcomp=0.70/qpmin=5/qpmax=69/qpstep=4/cplxblur=20.0/qblur=0.5/vbv_maxrate=50000/vbv_bufsize=62500/nal_hrd=none/filler=0/ip_ratio=1.40/aq=1: 1.00
Язык : Russian
Default : Да
Forced : Нет
Аудио
Идентификатор : 2
Формат : AC-3
Формат/Информация : Audio Coding 3
Расширение режима : CM (complete main)
Параметр Endianness формата : Big
Идентификатор кодека : A_AC3
Продолжительность : 1 ч. 27 м.
Вид битрейта : Постоянный
Битрейт : 384 Кбит/сек
Каналы : 6 каналов
Расположение каналов : Front: L C R, Side: L R, LFE
Частота : 48, 0 КГц
Битовая глубина : 16 бит
Метод сжатия : С потерями
Размер потока : 241 Мбайт (16%)
Заголовок : Оригинал
Язык : Russian
Default : Да
Forced : Нет
Скриншоты


Релиз подготовил:

Онлайн видео Реальный папа (2008) DVDRip


Размер скачиваемого торрента: 1.46 GB (1570375923 Bytes)

Реальный папа (2008) DVDRip-AVC
загрузка...
Рейтинг →
 (голосов: 1, оценка 5/5, голосовать можно 1 раз )

Другие торренты по теме:



    Комментарии (0):

    Информация

    Информация

      Посетители, находящиеся в группе Гости, не могут оставлять комментарии в данной новости.

      ↓ Меню



      ↓ Опрос

      А Вы добавили сайт в закладки?
      Да
      Не


      Top 10 за месяц (Фильмы)