.
Авторизация | Регистрация
Хочешь лучшие торренты? Добавь свой email!
Добавить
» » Турист поневоле / The Accidental Tourist (1988) WEB-DLRip | iTunes Russia торрент скачать бесплатно




    Турист поневоле / The Accidental Tourist (1988) WEB-DLRip | iTunes Russia торрент скачать бесплатно

    Опубликовал: Админ | Дата: 2-08-2015, 18:33 | Просмотров: 171




    Детально о кино
    Русское название: Турист поневоле
    Русское название в мировом прокате: The Accidental Tourist
    Создали в: 1988
    Категория жанра: драма, мелодрама
    Главный режиссер: Лоуренс Кэздан

    Актеры
    Уильям Хёрт, Кэтлин Тёрнер, Джина Дэвис, Эми Райт, Дэвид Огден Стайерз, Эд Бегли мл., Билл Пуллман, Роберт Хай Гормен, Брэдли Мотт, Сет Грэйнджер

    Сюжет фильма

    После смерти сына, Мэкон Лири, путешествующий писатель, не живет, а существует. Жена Мэкона, кажется, тоже испытывает душевные муки и, не в силах больше бороться за свой брак, решает, что им будет лучше расстаться. После расставания Мэкон встречает удивительную и немного эксцентричную молодую женщину, которая вновь возвращает его к жизни. Но она ли ему нужна?

    Снималось в: США
    Киностудия: Warner Bros. Pictures
    Время просмотра: 02: 01: 10
    Перевод текста: Профессиональный (двухголосый, закадровый) iTunes Russia
    Файл
    Тип видео: Matroska
    Качество фильма: WEB-DLRip
    Информация о видео: 704x288 at 23.976 fps, MPEG-4 AVC ~1500 kbps
    Aудио: 48 kHz, AC3, 2/0 (L, R) ch, 192 kbps

    M/I
    General
    Complete name : D: Турист поневоле.1988.WEB-DLRIP.-=DoMiNo=-.avi
    Format : AVI
    Format/Info : Audio Video Interleave
    File size : 1.46 GiB
    Duration : 2h 1mn
    Overall bit rate : 1 720 Kbps
    Writing library : VirtualDub build 35576/release
    Video
    ID : 0
    Format : MPEG-4 Visual
    Format profile : Advanced Simple@L5
    Format settings, BVOP : 2
    Format settings, QPel : No
    Format settings, GMC : No warppoints
    Format settings, Matrix : Custom
    Muxing mode : Packed bitstream
    Codec ID : XVID
    Codec ID/Hint : XviD
    Duration : 2h 1mn
    Bit rate : 1 519 Kbps
    Width : 704 pixels
    Height : 288 pixels
    Display aspect ratio : 2.40: 1
    Frame rate : 23.976 fps
    Color space : YUV
    Chroma subsampling : 4: 2: 0
    Bit depth : 8 bits
    Scan type : Progressive
    Compression mode : Lossy
    Bits/(Pixel*Frame) : 0.312
    Stream size : 1.29 GiB (88%)
    Writing library : XviD 73
    Audio
    ID : 1
    Format : AC-3
    Format/Info : Audio Coding 3
    Mode extension : CM (complete main)
    Format settings, Endianness : Big
    Codec ID : 2000
    Duration : 2h 1mn
    Bit rate mode : Constant
    Bit rate : 192 Kbps
    Channel(s) : 2 channels
    Channel positions : Front: L R
    Sampling rate : 48.0 KHz
    Compression mode : Lossy
    Stream size : 166 MiB (11%)
    Alignment : Aligned on interleaves
    Interleave, duration : 42 ms (1.00 video frame)
    Interleave, preload duratio : 512 ms


    Онлайн видео Турист поневоле


    Размер скачиваемого торрента: 1.46 GB (1562992586 Bytes)

    Турист поневоле/The Accidental Tourist (1988) WEB-DLRip | iTunes Russia
    загрузка...
    Рейтинг →
     (голосов: 1, оценка 5/5, голосовать можно 1 раз )

    Другие торренты по теме:

  • Турист поневоле / The Accidental Tourist (1988) WEB-DLRip-AVC | iTunes Russia


    • Комментарии (0):

      Информация

      Информация

        Посетители, находящиеся в группе Гости, не могут оставлять комментарии в данной новости.

        ↓ Меню



        ↓ Опрос

        А Вы добавили сайт в закладки?
        Да
        Не


        Top 10 за месяц (Фильмы)