.
Авторизация | Регистрация
Хочешь лучшие торренты? Добавь свой email!
Добавить
» » Готова на всё / Malice (1993) BDRip от Leon-masl | P2 торрент скачать бесплатно




    Готова на всё / Malice (1993) BDRip от Leon-masl | P2 торрент скачать бесплатно

    Опубликовал: Админ | Дата: 4-08-2015, 05:01 | Просмотров: 170



    Детально о кино
    Русское название: Готова на всё
    Русское название в мировом прокате: Malice
    Создали в: 1993
    Категория жанра: триллер, криминал, детектив
    Главный режиссер: Харольд Беккер

    Актеры
    Алек Болдуин, Николь Кидман, Билл Пуллман, Биби Ньювирт, Джордж К. Скотт, Энн Бэнкрофт, Питер Галлахер, Йозеф Зоммер, Гвинет Пэлтроу, Тобин Белл

    Сюжет фильма

    Энди Сафиан преподает в колледже и счастлив в браке с красавицей-женой Трейси. Но случай сводит их с преуспевающим хирургом Джедом, который постепенно вовлекает их в в запутанный узел интриг и предательства.

    Снималось в: Канада, США
    Время просмотра: 01: 46: 52
    Перевод текста: Профессиональный (двухголосый, закадровый) R5
    Файл
    Кодек для видео: XviD
    Качество фильма: BDRip
    Информация о видео: 672x368, 23, 976 fps, XviD build 73 ~842 kbps
    Информация о звуке: 48 kHz, MP3, 2ch, ~128 kbps
    MI
    Общее
    Полное имя : Gotova.na.vsie.1993.BDRip.avi
    Формат : AVI
    Формат/Информация : Audio Video Interleave
    Размер файла : 749 Мбайт
    Продолжительность : 1 ч. 46 м.
    Общий поток : 979 Кбит/сек
    Программа кодирования : VirtualDubMod 1.5.10.3 | www.virtualdub-fr.org || (build 2550/release)
    Библиотека кодирования : VirtualDubMod build 2550/release
    Видео
    Идентификатор : 0
    Формат : MPEG-4 Visual
    Профиль формата : Advanced Simple@L5
    Параметр BVOP формата : 2
    Параметр QPel формата : Нет
    Параметр GMC формата : Без точки перехода
    Параметр матрицы формата : Выборочная
    Идентификатор кодека : XVID
    Идентификатор кодека/Подсказка : XviD
    Продолжительность : 1 ч. 46 м.
    Битрейт : 842 Кбит/сек
    Ширина : 672 пикс.
    Высота : 368 пикс.
    Соотношение сторон : 16: 9
    Частота кадров : 23, 976 кадр/сек
    Цветовое пространство : YUV
    Подвыборка цветности : 4: 2: 0
    Битовая глубина : 8 бит
    Тип развёртки : Прогрессивная
    Метод сжатия : С потерями
    Бит/(Пиксели*Кадры) : 0.142
    Размер потока : 644 Мбайт (86%)
    Библиотека кодирования : XviD 73
    Аудио
    Идентификатор : 1
    Формат : MPEG Audio
    Версия формата : Version 1
    Профиль формата : Layer 3
    Идентификатор кодека : 55
    Идентификатор кодека/Подсказка : MP3
    Продолжительность : 1 ч. 46 м.
    Вид битрейта : Постоянный
    Битрейт : 128 Кбит/сек
    Канал(ы) : 2 канала(ов)
    Частота : 48, 0 КГц
    Метод сжатия : С потерями
    Размер потока : 97, 8 Мбайт (13%)
    Выравнивание : Соединение по промежуткам
    Продолжительность промежутка : 42 мс. (1, 00 видеокадр)
    Время предзагрузки промежутка : 504 ms
    Библиотека кодирования : LAME3.99r
    Залил: leon-masl

    Онлайн видео Готова на всё


    Размер скачиваемого торрента: 748.56 MB (784924672 Bytes)


    Готова на всё/Malice (1993) BDRip от Leon-masl | P2
    загрузка...
    Рейтинг →
     (голосов: 1, оценка 5/5, голосовать можно 1 раз )

    Другие торренты по теме:

  • Готова на всё / Malice (1993) HDTVRip от Leon-masl | P2 скачать через торрент бесплатно
  • Готова на всё / Malice (1993) BDRip от HQCLUB
  • Готова на всё / Malice (1993) BDRip 1080p | P2, A


    • Комментарии (0):

      Информация

      Информация

        Посетители, находящиеся в группе Гости, не могут оставлять комментарии в данной новости.

        ↓ Меню



        ↓ Опрос

        А Вы добавили сайт в закладки?
        Да
        Не


        Top 10 за месяц (Фильмы)