.
Авторизация | Регистрация
Хочешь лучшие торренты? Добавь свой email!
Добавить
» » В плену песков / A Far Off Place (1993) WEB-DL 720p | P, A торрент скачать бесплатно




    В плену песков / A Far Off Place (1993) WEB-DL 720p | P, A торрент скачать бесплатно

    Опубликовал: Админ | Дата: 7-08-2015, 05:03 | Просмотров: 189



    В плену песков
    | A Far Off Place |

    Детально о кино
    Русское название: В плену песков
    Русское название в мировом прокате: A Far Off Place
    Создали в: 1993
    Категория жанра: драма, приключения, мелодрама
    Главный режиссер: Микаэл Саломон

    Актеры
    Риз Уизерспун, Итэн Эмбри, Джек Томпсон, Сарел Бок, Роберт Джон Бёрк, Патриция Кэлембер, Дэниэл Джерролл, Максимилиан Шелл, Майлз Андерсон, Фиделис Чеза, Энтони Чиньянга, Магдалена Дамас, Брайан Купер

    Сюжет фильма

    Фильм основан на повестях A Story Like The Wind и A Far Off Place южноафриканского писателя, натуралиста и журналиста Лоуренса Ван дер Поста. Нинни и Гарри – единственные свидетели убийства на отдаленной ферме в затерянной саванне. Теперь по их следам идут коварные убийцы. Единственный способ спастись в этой ситуации – пройти 2000 километров по бескрайней пустыне Калахари...

    Снималось в: США
    Киностудия: Amblin Entertainment, Touchwood Pacific Partners 1, Walt Disney Pictures
    Время просмотра: 01: 47: 26
    Перевод текста: Профессиональный многоголосый, авторский
    Файл
    Кодек для видео: h.264
    Качество фильма: WEB-DL 720p
    Информация о видео: 3946 Кбит/с, 1280x694, 25.000 кадр/с
    Информация о звуке:
    • №1: Русский (AC3, 2 ch, 192 Кбит/с) Профессиональный многоголосый iTunes Russia
    • №2: Русский (AC3, 2 ch, 192 Кбит/с) Профессиональный многоголосый Видеосервис
    • №3: Русский (AC3, 2 ch, 192 Кбит/с) Профессиональный многоголосый ДТВ
    • №4: Русский (AC3, 2 ch, 192 Кбит/с) Авторский Леонид Володарский
    • №5: Английский (AC3, 2 ch, 192 Кбит/с)
    Субтитры: Русские, английские
    MediaInfo

    Полное имя : A.Far.Off.Place.1993.x264.WEB-DL.720p.mkv
    Формат : Matroska
    Версия формата : Version 2
    Размер файла : 3, 76 Гбайт
    Продолжительность : 1 ч. 47 м.
    Общий поток : 5006 Кбит/сек
    Название фильма : A Far Off Place (1993)
    Дата кодирования : UTC 2015-07-04 08: 50: 06
    Программа кодирования : mkvmerge v6.6.0 (;The Edge Of The In Between;) built on Dec 1 2013 17: 55: 00
    Библиотека кодирования : libebml v1.3.0 + libmatroska v1.4.1
    Видео
    Идентификатор : 1
    Формат : AVC
    Формат/Информация : Advanced Video Codec
    Профиль формата : High@L3.1
    Параметр CABAC формата : Нет
    Параметр ReFrames формата : 2 кадра
    Идентификатор кодека : V_MPEG4/ISO/AVC
    Продолжительность : 1 ч. 47 м.
    Битрейт : 3946 Кбит/сек
    Ширина : 1280 пикселей
    Высота : 694 пикселя
    Соотношение сторон : 1, 85: 1
    Режим частоты кадров : Постоянный
    Частота кадров : 23, 976 кадра/сек
    Цветовое пространство : YUV
    Субдискретизация насыщенности : 4: 2: 0
    Битовая глубина : 8 бит
    Тип развёртки : Прогрессивная
    Бит/(Пиксели*Кадры) : 0.185
    Размер потока : 2, 96 Гбайт (79%)
    Заголовок : A Far Off Place (1993) - Release for HDCLUB
    Язык : English
    Default : Да
    Forced : Да
    Основные цвета : BT.709
    Характеристики трансфера : BT.709
    Коэффициенты матрицы : BT.709
    Аудио #1
    Идентификатор : 2
    Формат : AC-3
    Формат/Информация : Audio Coding 3
    Расширение режима : CM (complete main)
    Параметр Endianness формата : Big
    Идентификатор кодека : A_AC3
    Продолжительность : 1 ч. 47 м.
    Вид битрейта : Постоянный
    Битрейт : 192 Кбит/сек
    Каналы : 2 канала
    Расположение каналов : Front: L R
    Частота : 48, 0 КГц
    Битовая глубина : 16 бит
    Метод сжатия : С потерями
    Размер потока : 148 Мбайт (4%)
    Заголовок : Многоголосый iTunes Russia AC3 2.0 @ 192 kbps
    Язык : Russian
    Default : Да
    Forced : Да
    Аудио #2
    Идентификатор : 3
    Формат : AC-3
    Формат/Информация : Audio Coding 3
    Расширение режима : CM (complete main)
    Параметр Endianness формата : Big
    Идентификатор кодека : A_AC3
    Продолжительность : 1 ч. 47 м.
    Вид битрейта : Постоянный
    Битрейт : 192 Кбит/сек
    Каналы : 2 канала
    Расположение каналов : Front: L R
    Частота : 48, 0 КГц
    Битовая глубина : 16 бит
    Метод сжатия : С потерями
    Размер потока : 148 Мбайт (4%)
    Заголовок : Многоголосый Видеосервис AC3 2.0 @ 192 kbps
    Язык : Russian
    Default : Нет
    Forced : Нет
    Аудио #3
    Идентификатор : 4
    Формат : AC-3
    Формат/Информация : Audio Coding 3
    Расширение режима : CM (complete main)
    Параметр Endianness формата : Big
    Идентификатор кодека : A_AC3
    Продолжительность : 1 ч. 47 м.
    Вид битрейта : Постоянный
    Битрейт : 192 Кбит/сек
    Каналы : 2 канала
    Расположение каналов : Front: L R
    Частота : 48, 0 КГц
    Битовая глубина : 16 бит
    Метод сжатия : С потерями
    Размер потока : 148 Мбайт (4%)
    Заголовок : Многоголосый ДТВ AC3 2.0 @ 192 kbps
    Язык : Russian
    Default : Нет
    Forced : Нет
    Аудио #4
    Идентификатор : 5
    Формат : AC-3
    Формат/Информация : Audio Coding 3
    Расширение режима : CM (complete main)
    Параметр Endianness формата : Big
    Идентификатор кодека : A_AC3
    Продолжительность : 1 ч. 47 м.
    Вид битрейта : Постоянный
    Битрейт : 192 Кбит/сек
    Каналы : 2 канала
    Расположение каналов : Front: L R
    Частота : 48, 0 КГц
    Битовая глубина : 16 бит
    Метод сжатия : С потерями
    Размер потока : 148 Мбайт (4%)
    Заголовок : Авторский Леонид Володарский AC3 2.0 @ 192 kbps
    Язык : Russian
    Default : Нет
    Forced : Нет
    Аудио #5
    Идентификатор : 6
    Формат : AC-3
    Формат/Информация : Audio Coding 3
    Профиль формата : Dolby Digital
    Расширение режима : CM (complete main)
    Параметр Endianness формата : Big
    Идентификатор кодека : A_AC3
    Продолжительность : 1 ч. 47 м.
    Вид битрейта : Постоянный
    Битрейт : 192 Кбит/сек
    Каналы : 2 канала
    Расположение каналов : Front: L R
    Частота : 48, 0 КГц
    Битовая глубина : 16 бит
    Метод сжатия : С потерями
    Размер потока : 148 Мбайт (4%)
    Заголовок : AC3 2.0 @ 192 kbps
    Язык : English
    Default : Нет
    Forced : Нет
    Текст #1
    Идентификатор : 7
    Формат : UTF-8
    Идентификатор кодека : S_TEXT/UTF8
    Идентификатор кодека/Информация : UTF-8 Plain Text
    Язык : Russian
    Default : Нет
    Forced : Нет
    Текст #2
    Идентификатор : 8
    Формат : UTF-8
    Идентификатор кодека : S_TEXT/UTF8
    Идентификатор кодека/Информация : UTF-8 Plain Text
    Язык : English
    Default : Нет
    Forced : Нет
    Меню
    00: 00: 00.000 : en: 1. Opening Credits/Bones Dry and Boring
    00: 16: 32.000 : en: 2. Sneaking Out
    00: 23: 44.000 : en: 3. They Killed Everybody!
    00: 34: 32.000 : en: 4. Follow the Wind
    00: 44: 12.000 : en: 5. The Kalahari
    00: 57: 06.000 : en: 6. Survival
    01: 06: 55.000 : en: 7. Harry the Hunter
    01: 17: 40.000 : en: 8. A Growing Peril
    01: 32: 20.000 : en: 9. The End of the Desert
    01: 34: 23.000 : en: 10. John Ricketts
    01: 39: 46.000 : en: 11. Don;t Look Back/End Credits
    Скриншоты



    Залил: 0ptimus

    Онлайн видео В плену песков


    Размер скачиваемого торрента: 3.76 GB (4033910418 Bytes)

    В плену песков/A Far Off Place (1993) WEB-DL 720p | P, A
    загрузка...
    Рейтинг →
     (голосов: 1, оценка 4/5, голосовать можно 1 раз )

    Другие торренты по теме:

  • В плену у моды / Мир моды / Fashion (2008) HDRip
  • В плену у космоса / Stranded (2013) BDRip-AVC от R.G 25 Кадр
  • В плену у космоса / Stranded (2013) HDRip | НТВ
  • В плену у космоса / Stranded (2013) DVDRip от ClubTorrent | P
  • В плену / Last Day of Summer (2009) BDRip-AVC от 0ptimus | P
  • Земля в плену / 1927 / НК / DVB
  • В плену песков / A Far Off Place (1993) WEB-DL 720p | P, A
  • Филипп Б. Керр - Дети лампы: Джинн в плену Эхнатона (1 книга из 3) / Детская литература / 2009 / Наталья Грачёва / MP3


    • Комментарии (0):

      Информация

      Информация

        Посетители, находящиеся в группе Гости, не могут оставлять комментарии в данной новости.

        ↓ Меню



        ↓ Опрос

        А Вы добавили сайт в закладки?
        Да
        Не


        Top 10 за месяц (Фильмы)