.
Авторизация | Регистрация
» » Красный галстук (1948) DVDRip от New-Team скачать торрент бесплатно




    Красный галстук (1948) DVDRip от New-Team скачать торрент бесплатно

    Опубликовал: Админ | Дата: 9-08-2015, 05:01 | Просмотров: 214



    Снималось в: СССР
    Создали в: Союздетфильм
    Категория жанра: детский
    Создали в: 1948
    Время просмотра: 01: 06: 36
    Перевод текста: Не требуется
    Субтитры подготовлены: нет
    Оригинальная аудиодорожка: русский
    Главный режиссер: Мария Сауц, Владимир Сухобоков

    Актеры

    Александр Соколов, Ирина Начинкина, Слава Котов, Анатолий Ганичев, Александр Хвыля, Галина Степанова, Вера Окунева, Виталий Доронин, Николай Богатырев...
    Полный список актёров
    Описание:
    В семье директора завода коммуниста Вишняка вместе с его детьми Мариной и Валерием воспитывается приемный сын Шура Бадекин, отец которого погиб на фронте. Дети хорошо учатся, дружат между собой. Однако в характере Валерия все больше проявляются себялюбие, эгоизм, заносчивость. Однажды отец заметил, что Валерий перестал носить пионерский галстук. Оказывается, подросток отказался выполнить поручение отряда и сам снял с себя галстук. На совете отряда Шура Бадекин осудил поведение друга, но его поведение Валерий расценил как предательство…



    Источник: DVD9 R5
    Качество фильма видео: DVDRip
    Тип видео видео: AVI
    Информация о видео: 688x512 (4: 3), 25 fps, XviD ~ 2156 kbps avg, 0.245 bit/pixel
    Информация о звуке: 48 kHz, Dolby Digital AC3 2.0, 192 kbps
    Раздача от:
    MediaInfo

    Общее
    Полное имя : Krasnyy.galstuk.1948.DVDRip_New-team_by_AVP_Studio.avi
    Формат : AVI
    Формат/Информация : Audio Video Interleave
    Размер файла : 1, 09 Гбайт
    Продолжительность : 1 ч. 6 м.
    Общий поток : 2358 Кбит/сек
    Программа кодирования : VirtualDubMod 1.5.10.3 | www.virtualdub-fr.org || (build 2550/release)
    Библиотека кодирования : VirtualDubMod build 2550/release
    Видео
    Идентификатор : 0
    Формат : MPEG-4 Visual
    Профиль формата : Advanced Simple@L5
    Параметр BVOP формата : 1
    Параметр QPel формата : Нет
    Параметр GMC формата : Без точки перехода
    Параметр матрицы формата : Выборочная
    Идентификатор кодека : XVID
    Идентификатор кодека/Подсказка : XviD
    Продолжительность : 1 ч. 6 м.
    Битрейт : 2156 Кбит/сек
    Ширина : 688 пикселей
    Высота : 512 пикселей
    Соотношение сторон : 4: 3
    Частота кадров : 25, 000 кадров/сек
    Цветовое пространство : YUV
    Субдискретизация насыщенности : 4: 2: 0
    Битовая глубина : 8 бит
    Тип развёртки : Прогрессивная
    Метод сжатия : С потерями
    Бит/(Пиксели*Кадры) : 0.245
    Размер потока : 1021 Мбайт (91%)
    Библиотека кодирования : XviD 73
    Аудио
    Идентификатор : 1
    Формат : AC-3
    Формат/Информация : Audio Coding 3
    Расширение режима : CM (complete main)
    Параметр Endianness формата : Big
    Идентификатор кодека : 2000
    Продолжительность : 1 ч. 6 м.
    Вид битрейта : Постоянный
    Битрейт : 192 Кбит/сек
    Каналы : 2 канала
    Расположение каналов : Front: L R
    Частота : 48, 0 КГц
    Метод сжатия : С потерями
    Размер потока : 90, 9 Мбайт (8%)
    Выравнивание : Разделение по промежуткам
    Продолжительность промежутка : 40 мс. (1, 00 видеокадр)
    Время предзагрузки промежутка : 500 мс

    Скриншоты



    Залил: AVPStudio

    Онлайн видео Красный галстук (1948) DVDRip от New


    Размер скачиваемого торрента: 1.09 GB (1170239488 Bytes)

    Красный галстук (1948) DVDRip от New-Team
    загрузка...
    Рейтинг →
     (голосов: 1, оценка 5/5, голосовать можно 1 раз )

    Другие торренты по теме:



      Комментарии (0):

      Информация

      Информация

        Посетители, находящиеся в группе Гости, не могут оставлять комментарии в данной новости.

        ↓ Меню



        ↓ Опрос

        А Вы добавили сайт в закладки?
        Да
        Не


        Top 10 за неделю (Фильмы)