.
Авторизация | Регистрация
» » Темный рыцарь: Возрождение легенды / The Dark Knight Rises (2012) HDRip | IMAX | Живов торрент скачать бесплатно




    Темный рыцарь: Возрождение легенды / The Dark Knight Rises (2012) HDRip | IMAX | Живов торрент скачать бесплатно

    Опубликовал: Админ | Дата: 9-08-2015, 05:03 | Просмотров: 424


    Темный рыцарь: Возрождение легенды/The Dark Knight Rises (2012) HDRip


    Создали в: США, Великобритания/Warner Bros., Legendary Pictures, DC Entertainmen
    Категория жанра: Боевик, Фантастика, Триллер
    Время просмотра: 02: 44: 33
    Перевод текста: Авторский (одноголосый, закадровый)Ю.Живов
    Субтитры: Отсутствуют
    Главный режиссер: Кристофер Нолан
    Актеры: Кристиан Бэйл, Том Харди, Энн Хэтэуэй, Джозеф Гордон-Левитт, Марион Котийяр, Гари Олдман, Морган Фриман, Майкл Кейн, Лиам Нисон, Мэтью Модайн...

    Описание фильма

    Восемь лет назад Бэтмен растворился в ночи, превратившись из героя в беглеца. Приняв на себя вину за смерть прокурора Харви Дента, Темный рыцарь пожертвовал всем. Вместе с комиссаром Гордоном они решили, что так будет лучше для всех. Пока преступность была раздавлена антикриминальным актом Дента, ложь действовала.
    Но с появлением хитрой воровки с загадочным прошлым всё меняется. Тем не менее, еще опаснее становится появление террориста Бэйна, чье лицо закрыто маской. Он разворачивает в Готэме чудовищную деятельность, вынуждая Брюса Уэйна выйти из импровизированного изгнания. Однако даже надев свой костюм, Бэтмен может проиграть Бэйну.

    Релиз подготовил: FAGOT100
    Качество фильма видео: HDRip
    Информация о видео: MPEG4, XviD, 720x400 (16: 9), 23.976 fps, 1 440 Kbps (0.209 bit/pixel)
    Информация о звуке: AC-3, 48.0 KHz, 6 ch, 448 Kbps, CBR
    Скриншоты:


    Mediainfo:
    code
    Формат : AVI
    Формат/Информация : Audio Video Interleave
    Профиль формата : OpenDML
    Размер файла : 2, 18 Гбайт
    Продолжительность : 2 ч. 44 м.
    Общий поток : 1900 Кбит/сек
    Программа кодирования : VirtualDubMod 1.5.10.3 | www.virtualdub-fr.org || (build 2550/release)
    Библиотека кодирования : VirtualDubMod build 2550/release
    Видео
    Идентификатор : 0
    Формат : MPEG-4 Visual
    Профиль формата : Advanced Simple@L5
    Параметр BVOP формата : 1
    Параметр QPel формата : Нет
    Параметр GMC формата : Без точки перехода
    Параметр матрицы формата : Выборочная
    Идентификатор кодека : XVID
    Идентификатор кодека/Подсказка : XviD
    Продолжительность : 2 ч. 44 м.
    Битрейт : 1440 Кбит/сек
    Ширина : 720 пикселей
    Высота : 400 пикселей
    Соотношение сторон : 16: 9
    Частота кадров : 23, 976 кадра/сек
    Цветовое пространство : YUV
    Субдискретизация насыщенности : 4: 2: 0
    Битовая глубина : 8 бит
    Тип развёртки : Прогрессивная
    Метод сжатия : С потерями
    Бит/(Пиксели*Кадры) : 0.209
    Размер потока : 1, 66 Гбайт (76%)
    Библиотека кодирования : XviD 73
    Аудио
    Идентификатор : 1
    Формат : AC-3
    Формат/Информация : Audio Coding 3
    Расширение режима : CM (complete main)
    Параметр Endianness формата : Big
    Идентификатор кодека : 2000
    Продолжительность : 2 ч. 44 м.
    Вид битрейта : Постоянный
    Битрейт : 448 Кбит/сек
    Каналы : 6 каналов
    Расположение каналов : Front: L C R, Side: L R, LFE
    Частота : 48, 0 КГц
    Битовая глубина : 16 бит
    Метод сжатия : С потерями
    Размер потока : 527 Мбайт (24%)
    Выравнивание : Разделение по промежуткам
    Продолжительность промежутка : 42 мс. (1, 00 видеокадр)
    Время предзагрузки промежутка : 500 мс.



    Онлайн видео Темный рыцарь: Возрождение легенды


    Размер скачиваемого торрента: 2.18 GB (2344779776 Bytes)

    Темный рыцарь: Возрождение легенды/The Dark Knight Rises (2012) HDRip | IMAX | Живов
    загрузка...
    Рейтинг →
     (голосов: 1, оценка 3/5, голосовать можно 1 раз )

    Другие торренты по теме:

  • Темный Рыцарь: Возрождение Легенды. Часть 2 / Batman: The Dark Knight Returns, Part 2 (2013) BDRemux 1080p | GOLIAF
  • Темный рыцарь: Возрождение легенды / The Dark Knight Rises (2012) HDRip | iPhone, iPod Touch, iPad
  • Темный рыцарь: Возрождение легенды. Часть 1 - 2 / Batman: The Dark Knight Returns, Part 1 - 2 (2012-2013) BDRip 1080p
  • Темный рыцарь / The Dark Knight (2008) BDRip-AVC от ExKinoRay
  • Темный рыцарь / The Dark Knight (2008) BDRip 720p от leonardo 59 | iPad
  • Темный рыцарь / The Dark Knight (2008) BDRip 720p от leonardo 59 Scarabey | Лицензия
  • Темный рыцарь: Возрождение легенды / The Dark Knight Rises (2012) BDRip 720p | 60 fps | IMAX скачать через торрент бесплатно
  • Темный рыцарь: Возрождение легенды / The Dark Knight Rises (2012) BDRip-AVC от HELLYWOOD | IMAX | Лицензия


    • Комментарии (0):

      Информация

      Информация

        Посетители, находящиеся в группе Гости, не могут оставлять комментарии в данной новости.

        ↓ Меню



        ↓ Опрос

        А Вы добавили сайт в закладки?
        Да
        Не


        Top 10 за месяц (Фильмы)