.
Авторизация | Регистрация
» » Правда о Чарли / The Truth About Charlie (2002) WEB-DLRip-AVC | P скачать торрент бесплатно




    Правда о Чарли / The Truth About Charlie (2002) WEB-DLRip-AVC | P скачать торрент бесплатно

    Опубликовал: Админ | Дата: 13-08-2015, 05:00 | Просмотров: 239


    Правда о Чарли/The Truth About Charlie (2002) WEB-DLRip-AVC

    Детально о кино
    Русское название: Правда о Чарли
    Русское название в мировом прокате: The Truth About Charlie
    Создали в: 2002
    Создали в: США, Германия, Universal Pictures, Mediastream Zweite Film GmbH Co. Productions KG, Clinica Estetico
    Категория жанра: Триллер, Детектив
    Время просмотра: 01: 39: 32
    Перевод текста: Многоголосый закадровый
    Субтитры: Русский, английский, французский, испанский
    Главный режиссер: Джонатан Демме
    Актеры: Марк Уолберг, Тэнди Ньютон, Кристин Буассон, Тим Роббинс, Чун Хун Пак, Тед Ливайн, Лиза Гей Хэмилтон, Стивен Диллейн, Симон Абкарян, Фредерик Мейнингер, Шарль Азнавур, Анна Карина

    Описание фильма

    Реджина Лэмберт (Тэнди Ньютон) была замужем за красавчиком Чарли всего три месяца, затем подала на развод и уехала отдыхать. А вернувшись, узнала ошеломляющую новость: ее супруг убит, квартира разгромлена, а все деньги с ее счета бесследно исчезли. Реджина пытается обратиться в полицию и понимает, что совершенно ничего не знает о Чарли: оказывается, он занимался темными делами и вел двойную жизнь. Неожиданно появляются странные люди и требуют вернуть 6 миллионов долларов, украденные мужем. Они убеждены, что вдова знает их местонахождение. Молодой женщине грозит смертельная опасность. И Реджина решает: чтобы выбраться из ловушки, надо раскрыть все тайны своего мужа…

    Качество фильма видео: WEB-DLRip-AVC
    Информация о видео: AVC, 1024x432 (2.35: 1), 23.976 fps, 2 249 Kbps (0.212 bit/pixel)
    Информация о звуке #1: AC-3, 48.0 KHz, 6 ch, 448 Kbps, CBR (Russian)
    Информация о звуке #2: AC-3, 48.0 KHz, 6 ch, 448 Kbps, CBR (English)
    Релиз подготовил: FAGOT100(NNM-CLUB)
    Скриншоты:

    Mediainfo:

    Формат : Matroska
    Версия формата : Version 2
    Размер файла : 2, 23 Гбайт
    Продолжительность : 1 ч. 39 м.
    Общий поток : 3209 Кбит/сек
    Название фильма : The Truth About Charlie (2002)
    Дата кодирования : UTC 2015-08-12 13: 44: 14
    Программа кодирования : mkvmerge v5.3.0 (;I could have danced;) built on Feb 9 2012 10: 38: 07
    Библиотека кодирования : libebml v1.2.3 + libmatroska v1.3.0
    Attachment : Yes
    Видео
    Идентификатор : 1
    Формат : AVC
    Формат/Информация : Advanced Video Codec
    Профиль формата : High@L4.1
    Параметр CABAC формата : Да
    Параметр ReFrames формата : 10 кадров
    Идентификатор кодека : V_MPEG4/ISO/AVC
    Продолжительность : 1 ч. 39 м.
    Битрейт : 2249 Кбит/сек
    Ширина : 1024 пикселя
    Высота : 432 пикселя
    Соотношение сторон : 2, 40: 1
    Режим частоты кадров : Постоянный
    Частота кадров : 23, 976 кадра/сек
    Цветовое пространство : YUV
    Субдискретизация насыщенности : 4: 2: 0
    Битовая глубина : 8 бит
    Тип развёртки : Прогрессивная
    Бит/(Пиксели*Кадры) : 0.212
    Размер потока : 1, 56 Гбайт (70%)
    Библиотека кодирования : x264 core 146 r2538 121396c
    Настройки программы : cabac=1/ref=10/deblock=1: -3: -3/analyse=0x3: 0x133/me=umh/subme=10/psy=1/psy_rd=1.00: 0.15/mixed_ref=1/me_range=32/chroma_me=1/trellis=2/8x8dct=1/cqm=0/deadzone=21, 11/fast_pskip=0/chroma_qp_offset=-3/threads=12/lookahead_threads=2/sliced_threads=0/nr=0/decimate=0/interlaced=0/bluray_compat=0/constrained_intra=0/bframes=6/b_pyramid=2/b_adapt=2/b_bias=0/direct=3/weightb=1/open_gop=0/weightp=2/keyint=240/keyint_min=23/scenecut=40/intra_refresh=0/rc=crf/mbtree=0/crf=17.5/qcomp=0.60/qpmin=0/qpmax=69/qpstep=4/ip_ratio=1.40/pb_ratio=1.30/aq=1: 1.00
    Default : Да
    Forced : Нет
    Аудио #1
    Идентификатор : 2
    Формат : AC-3
    Формат/Информация : Audio Coding 3
    Расширение режима : CM (complete main)
    Параметр Endianness формата : Big
    Идентификатор кодека : A_AC3
    Продолжительность : 1 ч. 39 м.
    Вид битрейта : Постоянный
    Битрейт : 448 Кбит/сек
    Каналы : 6 каналов
    Расположение каналов : Front: L C R, Side: L R, LFE
    Частота : 48, 0 КГц
    Битовая глубина : 16 бит
    Метод сжатия : С потерями
    Размер потока : 319 Мбайт (14%)
    Заголовок : AC3, 6 ch, 448 Kbps, MVO
    Язык : Russian
    Default : Да
    Forced : Нет
    Аудио #2
    Идентификатор : 3
    Формат : AC-3
    Формат/Информация : Audio Coding 3
    Расширение режима : CM (complete main)
    Параметр Endianness формата : Big
    Идентификатор кодека : A_AC3
    Продолжительность : 1 ч. 39 м.
    Вид битрейта : Постоянный
    Битрейт : 448 Кбит/сек
    Каналы : 6 каналов
    Расположение каналов : Front: L C R, Side: L R, LFE
    Частота : 48, 0 КГц
    Битовая глубина : 16 бит
    Метод сжатия : С потерями
    Размер потока : 319 Мбайт (14%)
    Заголовок : AC3, 6 ch, 448 Kbps, Original
    Язык : English
    Default : Нет
    Forced : Нет
    Текст #1
    Идентификатор : 4
    Формат : UTF-8
    Идентификатор кодека : S_TEXT/UTF8
    Идентификатор кодека/Информация : UTF-8 Plain Text
    Язык : Russian
    Default : Нет
    Forced : Нет
    Текст #2
    Идентификатор : 5
    Формат : UTF-8
    Идентификатор кодека : S_TEXT/UTF8
    Идентификатор кодека/Информация : UTF-8 Plain Text
    Язык : English
    Default : Нет
    Forced : Нет
    Текст #3
    Идентификатор : 6
    Формат : UTF-8
    Идентификатор кодека : S_TEXT/UTF8
    Идентификатор кодека/Информация : UTF-8 Plain Text
    Язык : French
    Default : Нет
    Forced : Нет
    Текст #4
    Идентификатор : 7
    Формат : UTF-8
    Идентификатор кодека : S_TEXT/UTF8
    Идентификатор кодека/Информация : UTF-8 Plain Text
    Язык : Spanish
    Default : Нет
    Forced : Нет
    Меню
    00: 00: 00.000 : en: Chapter 01
    00: 02: 23.867 : en: Chapter 02
    00: 04: 17.734 : en: Chapter 03
    00: 08: 05.734 : en: Chapter 04
    00: 24: 15.568 : en: Chapter 05
    00: 28: 32.735 : en: Chapter 06
    00: 33: 05.235 : en: Chapter 07
    00: 35: 18.069 : en: Chapter 08
    00: 39: 24.569 : en: Chapter 09
    00: 43: 19.903 : en: Chapter 10
    00: 46: 48.403 : en: Chapter 11
    00: 51: 25.403 : en: Chapter 12
    00: 55: 27.403 : en: Chapter 13
    00: 59: 05.770 : en: Chapter 14
    01: 03: 13.770 : en: Chapter 15
    01: 08: 34.104 : en: Chapter 16
    01: 12: 46.104 : en: Chapter 17
    01: 19: 38.771 : en: Chapter 18
    01: 31: 07.605 : en: Chapter 19
    01: 35: 29.272 : en: Chapter 20


    Онлайн видео Правда о Чарли


    Размер скачиваемого торрента: 2.23 GB (2395518291 Bytes)

    Правда о Чарли/The Truth About Charlie (2002) WEB-DLRip-AVC | P
    загрузка...
    Рейтинг →
     (голосов: 1, оценка 5/5, голосовать можно 1 раз )

    Другие торренты по теме:

  • Право на правду (2012) SATRip торрент скачать бесплатно
  • Право на правду (2012) SATRip от Files-x торрент скачать бесплатно
  • KADATH - Правду Скрыла Тьма Веков... (2004) MP3 торрент скачать бесплатно
  • KADATH - Правду Скрыла Тьма Веков... (2004) APE торрент скачать бесплатно
  • Правда о прививках (2006) DVD-5 торрент скачать бесплатно
  • В поисках правды: О ковчеге / The Truth behind: Тhe Ark (2009) HDTVRip торрент скачать бесплатно
  • Репрессированная правда (01-2 из 2) DVDRip торрент скачать бесплатно
  • Бремя правды / Karz: The Burden of Truth (2002) SATRip от Files-x торрент скачать бесплатно


    • Комментарии (0):

      Информация

      Информация

        Посетители, находящиеся в группе Гости, не могут оставлять комментарии в данной новости.

        ↓ Меню



        ↓ Опрос

        А Вы добавили сайт в закладки?
        Да
        Не


        Top 10 за неделю (Фильмы)