.
Авторизация | Регистрация
Хочешь лучшие торренты? Добавь свой email!
Добавить
» » Трест, который лопнул (1982) HDTVRip от GeneralFilm торрент скачать бесплатно




    Трест, который лопнул (1982) HDTVRip от GeneralFilm торрент скачать бесплатно

    Опубликовал: Админ | Дата: 14-08-2015, 05:00 | Просмотров: 166



    Русское название в мировом прокате: Трест, который лопнул
    Создали в: 1982
    Категория жанра: Музыкальный, комедия, приключения, экранизация
    Снималось в: СССР, Одесская киностудия
    Главный режиссер: Александр Павловский

    Актеры
    Регимантас Адомайтис, Николай Караченцов, Михаил Срибный, Виктор Ильичёв, Юрий Волович, Леонид Куравлёв, Борис Новиков, Михаил Светин, Владимир Басов, Павел Винник, Лев Перфилов, Геннадий Ялович, Михаил Муромов, Ирина Понаровская, Виталий Шаповалов, Всеволод Абдулов, Борис Боровский, Юрий Мажуга, Елена Аминова, Тамара Яценко, Анатолий Падука, Олег Федулов, Евгений Кулешов, Вадим Александров, Юрий Вотяков, Владимир Коровкин, Нина Ильина, Ингрид Андринь, Франческа Переплетчикова, Александр Павловский, Станислав Пеньков

    Сюжет фильма
    Мюзикл в 3-х сериях, созданный по мотивам юмористических рассказов О;Генри Поросячья этика, Коридоры власти, Супружество как точная наука. Приключения двух очаровательных мошенников, живущих за счет доверчивых простаков. Не все и не всегда им удается так, как они задумали первоначально, но зато сколько выдумки в их остроумном поиске хлеба насущного! Блистательный актерский ансамбль успешно помогает донести до зрителя мягкий юмор О;Генри. В фильме звучат песни на стихи Наума Олева и Леонида Филатова в исполнении Павла Смеяна и Николая Караченцова.
    Качество фильма: HDTVRip
    Информация о видео: XviD, ~ 950 Кбит/с, 704x528
    Информация о звуке: MP3, 2 ch, 128 Кбит/с
    Размер скачиваемого торрента: 1.46 ГБ
    Время просмотра: 3 х ~ 01: 05: 00
    Язык: Русский
    МедиаИнфо
    Общее
    Полное имя : Trest.kotoryj.lopnul.1982.XviD.HDTVRip.by.GeneralFilmSerija.01.avi
    Формат : AVI
    Формат/Информация : Audio Video Interleave
    Размер файла : 497 Мбайт
    Продолжительность : 1 ч. 3 м.
    Общий поток : 1089 Кбит/сек
    Программа кодирования : VirtualDubMod 1.5.10.3 | www.virtualdub-fr.org || (build 2550/release)
    Библиотека кодирования : VirtualDubMod build 2550/release
    Видео
    Идентификатор : 0
    Формат : MPEG-4 Visual
    Профиль формата : Advanced Simple@L5
    Параметр BVOP формата : 1
    Параметр QPel формата : Нет
    Параметр GMC формата : Без точки перехода
    Параметр матрицы формата : Выборочная
    Идентификатор кодека : XVID
    Идентификатор кодека/Подсказка : XviD
    Продолжительность : 1 ч. 3 м.
    Битрейт : 951 Кбит/сек
    Ширина : 704 пикселя
    Высота : 528 пикселей
    Соотношение сторон : 4: 3
    Частота кадров : 25, 000 кадров/сек
    Цветовое пространство : YUV
    Субдискретизация насыщенности : 4: 2: 0
    Битовая глубина : 8 бит
    Тип развёртки : Прогрессивная
    Метод сжатия : С потерями
    Бит/(Пиксели*Кадры) : 0.102
    Размер потока : 435 Мбайт (87%)
    Библиотека кодирования : XviD 73
    Аудио
    Идентификатор : 1
    Формат : MPEG Audio
    Версия формата : Version 1
    Профиль формата : Layer 3
    Идентификатор кодека : 55
    Идентификатор кодека/Подсказка : MP3
    Продолжительность : 1 ч. 3 м.
    Вид битрейта : Постоянный
    Битрейт : 128 Кбит/сек
    Каналы : 2 канала
    Частота : 48, 0 КГц
    Метод сжатия : С потерями
    Размер потока : 58, 5 Мбайт (12%)
    Выравнивание : Соединение по промежуткам
    Продолжительность промежутка : 40 мс. (1, 00 видеокадр)
    Время предзагрузки промежутка : 504 мс.
    Библиотека кодирования : LAME3.99r
    Залил: vsobbol

    Онлайн видео Сталинградская битва (1949) DVDRip от New


    Размер скачиваемого торрента: 1.46 GB (1565700096 Bytes)


    Трест, который лопнул (1982) HDTVRip от GeneralFilm
    загрузка...
    Рейтинг →
     (голосов: 1, оценка 3/5, голосовать можно 1 раз )

    Другие торренты по теме:

  • Операция Трест (4 серии из 4)


    • Комментарии (0):

      Информация

      Информация

        Посетители, находящиеся в группе Гости, не могут оставлять комментарии в данной новости.

        ↓ Меню



        ↓ Опрос

        А Вы добавили сайт в закладки?
        Да
        Не


        Top 10 за месяц (Фильмы)