.
Авторизация | Регистрация
» » Дивергент, глава 2: Инсургент / Insurgent (2015) BDRip 720p | Лицензия скачать торрент бесплатно




    Дивергент, глава 2: Инсургент / Insurgent (2015) BDRip 720p | Лицензия скачать торрент бесплатно

    Опубликовал: Админ | Дата: 14-08-2015, 05:01 | Просмотров: 268



    Детально о кино
    Русское название: Дивергент, глава 2: Инсургент
    Русское название в мировом прокате: Insurgent
    Создали в: 2015
    Категория жанра: Фантастика, боевик, приключения, экранизация
    Снималось в: США, Red Wagon Productions, Summit Entertainment
    Главный режиссер: Роберт Швентке

    Актеры
    Шэйлин Вудли, Тео Джеймс, Кейт Уинслет, Джай Кортни, Энсел Элгорт, Майлз Теллер, Зои Кравиц, Мекхай Файфер, Наоми Уоттс, Октавия Спенсер, Рэй Стивенсон, Тони Голдуин, Эшли Джадд, Мэгги Кью, Сьюки Уотерхаус, Эмджей Энтони, Дэниэл Дэ Ким, Кейнан Лонсдейл, Джонни Уэстон, Синтия Баррет

    Сюжет фильма
    В новой главе антиутопии об обществе, где все расставлено по полочкам, а любая индивидуальность подлежит искоренению, Трис должна найти способ борьбы со страшной системой, уничтожающей ее близких. Кто из них на очереди? Она узнает все больше страшных подробностей, стоящих за кажущимся порядком, и уже не может не видеть, что в ее мире пора что-то менять. Но главное в этой борьбе — справиться с расколом, который враг порождает в ее собственной душе.
    Файл
    Качество фильма: BDRip (720p)
    Информация о видео: MPEG-4 AVC, 5452 Кбит/с, 1280x534
    Информация о звуке: Русский, английский (AC3, 6 ch, 640 Кбит/с)
    Размер скачиваемого торрента: 5.71 ГБ
    Время просмотра: 01: 58: 59
    Перевод текста: Дублированный лицензия
    Субтитры: Русские, английские
    Семпл
    MI
    Общее
    Уникальный идентификатор : 186736172950826066850309074391206462880 (0x8C7C1426E7686C6586CBBB8C0A5005A0)
    Полное имя : C: Insurgent.2015.720p.BluRay.DD5.1.x264-FTO.mkv
    Формат : Matroska
    Версия формата : Version 2
    Размер файла : 5, 71 Гбайт
    Продолжительность : 1 ч. 59 м.
    Общий поток : 6864 Кбит/сек
    Название фильма : Insurgent.2015.x264.BDRip.1080p.Rus.Eng
    Дата кодирования : UTC 2015-08-13 16: 19: 53
    Программа кодирования : mkvmerge v7.9.0 (;Birds;) 64bit
    Библиотека кодирования : libebml v1.3.1 + libmatroska v1.4.2
    Видео
    Идентификатор : 1
    Формат : AVC
    Формат/Информация : Advanced Video Codec
    Профиль формата : High@L4.1
    Параметр CABAC формата : Да
    Параметр ReFrames формата : 12 кадров
    Идентификатор кодека : V_MPEG4/ISO/AVC
    Продолжительность : 1 ч. 59 м.
    Битрейт : 5447 Кбит/сек
    Ширина : 1280 пикселей
    Высота : 534 пикселя
    Соотношение сторон : 2, 40: 1
    Режим частоты кадров : Постоянный
    Частота кадров : 23, 976 кадра/сек
    Цветовое пространство : YUV
    Субдискретизация насыщенности : 4: 2: 0
    Битовая глубина : 8 бит
    Тип развёртки : Прогрессивная
    Бит/(Пиксели*Кадры) : 0.332
    Размер потока : 4, 53 Гбайт (79%)
    Библиотека кодирования : x264 core 142 r2491 24e4fed
    Настройки программы : cabac=1/ref=12/deblock=1: -3: -3/analyse=0x3: 0x133/me=tesa/subme=11/psy=1/psy_rd=1.05: 0.00/mixed_ref=1/me_range=24/chroma_me=1/trellis=2/8x8dct=1/cqm=0/deadzone=21, 11/fast_pskip=0/chroma_qp_offset=-2/threads=12/lookahead_threads=3/sliced_threads=0/nr=0/decimate=1/interlaced=0/bluray_compat=0/constrained_intra=0/bframes=11/b_pyramid=2/b_adapt=2/b_bias=0/direct=3/weightb=1/open_gop=0/weightp=2/keyint=250/keyint_min=23/scenecut=40/intra_refresh=0/rc=crf/mbtree=0/crf=14.5/qcomp=0.70/qpmin=0/qpmax=69/qpstep=4/ip_ratio=1.40/pb_ratio=1.30/aq=1: 0.70
    Язык : English
    Default : Да
    Forced : Нет
    Цветовой диапазон : Limited
    Коэффициенты матрицы : BT.709
    Аудио #1
    Идентификатор : 2
    Формат : AC-3
    Формат/Информация : Audio Coding 3
    Расширение режима : CM (complete main)
    Параметр Endianness формата : Big
    Идентификатор кодека : A_AC3
    Продолжительность : 1 ч. 59 м.
    Вид битрейта : Постоянный
    Битрейт : 640 Кбит/сек
    Каналы : 6 каналов
    Расположение каналов : Front: L C R, Side: L R, LFE
    Частота : 48, 0 КГц
    Метод сжатия : С потерями
    Размер потока : 545 Мбайт (9%)
    Язык : Russian
    Default : Да
    Forced : Нет
    Аудио #2
    Идентификатор : 3
    Формат : AC-3
    Формат/Информация : Audio Coding 3
    Расширение режима : CM (complete main)
    Параметр Endianness формата : Big
    Идентификатор кодека : A_AC3
    Продолжительность : 1 ч. 59 м.
    Вид битрейта : Постоянный
    Битрейт : 640 Кбит/сек
    Каналы : 6 каналов
    Расположение каналов : Front: L C R, Side: L R, LFE
    Частота : 48, 0 КГц
    Метод сжатия : С потерями
    Размер потока : 545 Мбайт (9%)
    Язык : English
    Default : Нет
    Forced : Нет
    Текст #1
    Идентификатор : 4
    Формат : UTF-8
    Идентификатор кодека : S_TEXT/UTF8
    Идентификатор кодека/Информация : UTF-8 Plain Text
    Язык : Russian
    Default : Нет
    Forced : Нет
    Текст #2
    Идентификатор : 5
    Формат : UTF-8
    Идентификатор кодека : S_TEXT/UTF8
    Идентификатор кодека/Информация : UTF-8 Plain Text
    Язык : English
    Default : Нет
    Forced : Нет
    Текст #3
    Идентификатор : 6
    Формат : UTF-8
    Идентификатор кодека : S_TEXT/UTF8
    Идентификатор кодека/Информация : UTF-8 Plain Text
    Заголовок : SDH
    Язык : English
    Default : Нет
    Forced : Нет
    Меню
    00: 00: 00.000 : en: 00: 00: 00.000
    00: 06: 11.288 : en: 00: 06: 11.288
    00: 13: 35.398 : en: 00: 13: 35.398
    00: 19: 35.007 : en: 00: 19: 35.007
    00: 26: 39.431 : en: 00: 26: 39.431
    00: 34: 23.061 : en: 00: 34: 23.061
    00: 41: 13.846 : en: 00: 41: 13.846
    00: 46: 34.708 : en: 00: 46: 34.708
    00: 53: 10.103 : en: 00: 53: 10.103
    00: 59: 30.358 : en: 00: 59: 30.358
    01: 05: 59.664 : en: 01: 05: 59.664
    01: 13: 34.910 : en: 01: 13: 34.910
    01: 22: 57.931 : en: 01: 22: 57.931
    01: 32: 04.936 : en: 01: 32: 04.936
    01: 39: 09.360 : en: 01: 39: 09.360
    01: 46: 38.642 : en: 01: 46: 38.642

    Скриншоты



    Онлайн видео Дивергент, глава 2: Инсургент


    Размер скачиваемого торрента: 5.71 GB (6126096382 Bytes)

    Дивергент, глава 2: Инсургент/Insurgent (2015) BDRip 720p | Лицензия
    загрузка...
    Рейтинг →
     (голосов: 1, оценка 5/5, голосовать можно 1 раз )

    Другие торренты по теме:

  • Дивергент, глава 2: Инсургент / Insurgent (2015) CAMRip скачать торрент бесплатно
  • Дивергент, глава 2: Инсургент / Insurgent (2015) WEBRip | Звук с TS скачать торрент бесплатно
  • Дивергент, глава 2: Инсургент / Insurgent (2015) HDTVRip–AVC | Чистый звук скачать торрент бесплатно
  • Дивергент, глава 2: Инсургент / Insurgent (2015) HDTVRip | Чистый звук скачать торрент бесплатно
  • Дивергент, глава 2: Инсургент / Insurgent (2015) HDRip от Scarabey | Чистый звук скачать торрент бесплатно
  • Дивергент, глава 2: Инсургент / Insurgent (2015) BDRip 720p | iTunes скачать торрент бесплатно
  • Дивергент, глава 2: Инсургент / Insurgent (2015) Blu-ray 1080p от HDCLUB | RUS Transfer | D | лицензия скачать торрент бесплатно
  • Дивергент, глава 2: Инсургент / Insurgent (2015) BDRip 1080p | 3D-Video | halfSBS | Лицензия скачать торрент бесплатно


    • Комментарии (0):

      Информация

      Информация

        Посетители, находящиеся в группе Гости, не могут оставлять комментарии в данной новости.

        ↓ Меню



        ↓ Опрос

        А Вы добавили сайт в закладки?
        Да
        Не


        Top 10 за неделю (Фильмы)