.
Авторизация | Регистрация
Хочешь лучшие торренты? Добавь свой email!
Добавить
» » Адамовы яблоки / Adams aebler (2005) BDRip 720p | P торрент скачать бесплатно




    Адамовы яблоки / Adams aebler (2005) BDRip 720p | P торрент скачать бесплатно

    Опубликовал: Админ | Дата: 15-08-2015, 05:01 | Просмотров: 222



    Детально о кино
    Русское название: Адамовы яблоки
    Русское название в мировом прокате: Adams aebler
    Создали в: 2005
    Категория жанра: драма, комедия, криминал
    Главный режиссер: Андерс Томас Йенсен/Anders Thomas Jensen/

    Актеры
    Ульрих Томсен/Ulrich Thomsen/ , Мадс Миккельсен/Mads Mikkelsen/ , Николас Бро/Nicolas Bro/ , Паприка Стеэн/Paprika Steen/ , Али Казим/Ali Kazim/ , Оле Теструп/Ole Thestrup/ , Николай Ли Каас/Nikolaj Lie Kaas/ , Гирд Лофквист/Gyrd L?fqvist/ , Ларс Ранте/Lars Ranthe/ , Петер Райхгардт/Peter Reichhardt/ и др.

    Сюжет фильма

    Адам, бывший лидер неонацистской группировки, досрочно освобождён из тюрьмы. Ему приходится пройти испытательный срок в сельской церкви, настоятелем которой является Иван, верящий в добро и честность людей. Адаму же этот испытательный срок нужен только для того, чтобы переждать некоторое время и вернуться к своим старым занятиям. История непростых взаимоотношений между двумя такими разными персонажами и легла в основу этого фильма.

    Снималось в: Дания, Германия
    Киностудия: MM Productions/August Film TV GmbH/Danmarks Radio (DR)
    Время просмотра: 01: 35: 04
    Перевод текста: Профессиональный (многоголосый, закадровый)
    Рип от CRiSC!
    Перевод текста: Леонид Векшин
    Роли озвучивали: Руслан Габидуллин, Пётр Гланц, Инна Королёва
    Файл
    Кодек для видео: H.264
    Качество фильма: BDRip 720p
    Информация о видео: 1280x558 at 23.976 fps, x264@L4.1, crf, ~7675 kbps avg
    Информация о звуке#1: Russian: 48 kHz, DTS, 3/2 (L, C, R, l, r) + LFE ch, ~1509.00 kbps avg |Многоголосый закадровый|
    Информация о звуке#2: Danish: 48 kHz, DTS, 3/2 (L, C, R, l, r) + LFE ch, ~1509.00 kbps avg |Оригинал|
    Субтитры: Russian (3 x Full -Wiseguy, Yaryk, giveaway ), English (Full), Danish (SDH)
    Скриншоты

    MediaInfo
    General
    Complete name : Adam;s.Apples.2005.720p.BluRay.Rus.Dan.CRiSC.mkv
    Format : Matroska
    Format version : Version 4/Version 2
    File size : 7.26 GiB
    Duration : 1h 35mn
    Overall bit rate : 10.9 Mbps
    Movie name : Adams aebler (2005)
    Encoded date : UTC 2015-08-14 15: 28: 07
    Writing application : mkvmerge v8.1.0 (;Psychedelic Postcard;) 64bit
    Writing library : libebml v1.3.1 + libmatroska v1.4.2
    Video
    ID : 1
    Format : AVC
    Format/Info : Advanced Video Codec
    Format profile : High@L4.1
    Format settings, CABAC : Yes
    Format settings, ReFrames : 11 frames
    Codec ID : V_MPEG4/ISO/AVC
    Duration : 1h 35mn
    Bit rate : 7 675 Kbps
    Width : 1 280 pixels
    Height : 558 pixels
    Display aspect ratio : 2.25: 1
    Frame rate mode : Constant
    Frame rate : 23.976 fps
    Color space : YUV
    Chroma subsampling : 4: 2: 0
    Bit depth : 8 bits
    Scan type : Progressive
    Bits/(Pixel*Frame) : 0.448
    Stream size : 5.11 GiB (70%)
    Title : Adams aebler (2005)
    Writing library : x264 core 146 r2538kMod 121396c
    Encoding settings : cabac=1/ref=11/deblock=1: -3: -3/analyse=0x3: 0x133/me=umh/subme=10/psy=1/fade_compensate=0.00/psy_rd=1.00: 0.00/mixed_ref=1/me_range=64/chroma_me=1/trellis=2/8x8dct=1/cqm=0/deadzone=21, 11/fast_pskip=0/chroma_qp_offset=-2/threads=12/lookahead_threads=2/sliced_threads=0/nr=0/decimate=0/interlaced=0/bluray_compat=0/constrained_intra=0/fgo=0/bframes=7/b_pyramid=2/b_adapt=2/b_bias=0/direct=3/weightb=1/open_gop=0/weightp=2/keyint=250/keyint_min=23/scenecut=40/intra_refresh=0/rc_lookahead=40/rc=crf/mbtree=0/crf=17.0000/qcomp=0.75/qpmin=0/qpmax=69/qpstep=4/vbv_maxrate=50000/vbv_bufsize=62500/crf_max=0.0/nal_hrd=none/filler=0/ip_ratio=1.30/pb_ratio=1.20/aq=3: 0.60
    Language : Russian
    Default : Yes
    Forced : No
    Color range : Limited
    Color primaries : BT.709
    Transfer characteristics : BT.709
    Matrix coefficients : BT.709
    Audio #1
    ID : 2
    Format : DTS
    Format/Info : Digital Theater Systems
    Mode : 16
    Format settings, Endianness : Big
    Codec ID : A_DTS
    Duration : 1h 35mn
    Bit rate mode : Constant
    Bit rate : 1 509 Kbps
    Channel(s) : 6 channels
    Channel positions : Front: L C R, Side: L R, LFE
    Sampling rate : 48.0 KHz
    Bit depth : 24 bits
    Compression mode : Lossy
    Stream size : 1.00 GiB (14%)
    Title : DTS 5.1 ch @ 1509 kbps - MVO
    Language : Russian
    Default : Yes
    Forced : No
    Audio #2
    ID : 3
    Format : DTS
    Format/Info : Digital Theater Systems
    Mode : 16
    Format settings, Endianness : Big
    Codec ID : A_DTS
    Duration : 1h 35mn
    Bit rate mode : Constant
    Bit rate : 1 509 Kbps
    Channel(s) : 6 channels
    Channel positions : Front: L C R, Side: L R, LFE
    Sampling rate : 48.0 KHz
    Bit depth : 24 bits
    Compression mode : Lossy
    Stream size : 1.00 GiB (14%)
    Title : DTS 5.1 ch @ 1509 kbps
    Language : English
    Default : No
    Forced : No
    Text #1
    ID : 4
    Format : UTF-8
    Codec ID : S_TEXT/UTF8
    Codec ID/Info : UTF-8 Plain Text
    Title : Full - Wiseguy
    Language : Russian
    Default : No
    Forced : No
    Text #2
    ID : 5
    Format : UTF-8
    Codec ID : S_TEXT/UTF8
    Codec ID/Info : UTF-8 Plain Text
    Title : Full - Yaryk
    Language : Russian
    Default : No
    Forced : No
    Text #3
    ID : 6
    Format : UTF-8
    Codec ID : S_TEXT/UTF8
    Codec ID/Info : UTF-8 Plain Text
    Title : Full - giveaway
    Language : Russian
    Default : No
    Forced : No
    Text #4
    ID : 7
    Format : UTF-8
    Codec ID : S_TEXT/UTF8
    Codec ID/Info : UTF-8 Plain Text
    Title : Full
    Language : English
    Default : No
    Forced : No
    Text #5
    ID : 8
    Format : UTF-8
    Codec ID : S_TEXT/UTF8
    Codec ID/Info : UTF-8 Plain Text
    Title : SDH
    Language : Danish
    Default : No
    Forced : No
    Menu
    00: 00: 00.000 : en: 00: 00: 00.000
    00: 08: 07.987 : en: 00: 08: 07.987
    00: 15: 20.586 : en: 00: 15: 20.586
    00: 22: 09.662 : en: 00: 22: 09.662
    00: 31: 33.141 : en: 00: 31: 33.141
    00: 37: 48.766 : en: 00: 37: 48.766
    00: 48: 14.433 : en: 00: 48: 14.433
    00: 57: 58.100 : en: 00: 57: 58.100
    01: 05: 00.271 : en: 01: 05: 00.271
    01: 11: 01.632 : en: 01: 11: 01.632
    01: 19: 13.457 : en: 01: 19: 13.457
    01: 24: 46.164 : en: 01: 24: 46.164
    01: 32: 09.357 : en: 01: 32: 09.357
    Дополнительная информация
    Цитата Кто-тописал:
    Сохранены оригинальные главы как на Blu-ray.
    Дорожка №1 получена наложением выделенного голоса на центр декодированного DTS-HD MA.
    В переводе и субтитрах присутствует ненормативная лексика.

    Размер скачиваемого торрента: 7.26 GB (7794946753 Bytes)

    Адамовы яблоки/Adams aebler (2005) BDRip 720p | P
    загрузка...
    Рейтинг →
     (голосов: 1, оценка 5/5, голосовать можно 1 раз )

    Другие торренты по теме:

  • Адамовы яблоки / Adams aebler / Adams Apples (2005) DVDRip от Brazzass


    • Комментарии (0):

      Информация

      Информация

        Посетители, находящиеся в группе Гости, не могут оставлять комментарии в данной новости.

        ↓ Меню



        ↓ Опрос

        А Вы добавили сайт в закладки?
        Да
        Не


        Top 10 за месяц (Фильмы)