.
Авторизация | Регистрация
» » Безумный Макс: Дорога ярости / Mad Max: Fury Road (2015) BDRip 1080p | D, A скачать торрент бесплатно




    Безумный Макс: Дорога ярости / Mad Max: Fury Road (2015) BDRip 1080p | D, A скачать торрент бесплатно

    Опубликовал: Админ | Дата: 16-08-2015, 05:01 | Просмотров: 199



    Детально о кино
    Русское название: Безумный Макс: Дорога ярости
    Русское название в мировом прокате: Mad Max: Fury Road
    Создали в: 2015
    Категория жанра: Фантастика, боевик, триллер, приключения, постапокалипсис
    Снималось в: Австралия, США, Kennedy Miller Productions, Village Roadshow Pictures
    Главный режиссер: Джордж Миллер

    Актеры
    Том Харди, Шарлиз Терон, Николас Холт, Хью Кияс-Бёрн, Джош Хелман, Нэйтан Джонс, Зои Кравиц, Роузи Хантингтон-Уайтли, Райли Кио, Эбби Ли, Кортни Итон, Джон Ховард, Ричард Картер, Иота, Энгус Сэмпсон, Дженнифер Хэйгэн, Меган Гэйл, Мелисса Яффер, Мелита Юришич, Джиллиан Джонс

    Сюжет фильма
    Вскоре после отмщения за смерть жены и сына, Макс Рокатански покинул ряды Основного силового патруля и уехал в глушь, где скитается в одиночестве, пока мир медленно падает в последствии нефтяного кризиса и глобальной войны. Не имея ничего, кроме своей машины Перехватчик, Максу предстоит научиться, как выжить в пост-апокалиптической пустоши и сражаться с жестокими, безжалостными воинами, которые населяют её.
    Файл
    Качество фильма: BDRip (1080p)
    Информация о видео: MPEG-4 AVC, 12500 Кбит/с, 1920x800
    Aудио#1: Русский: 48 kHz, AC3, 3/2 (L, C, R, l, r) + LFE ch, 640.00 kbps avg | Дубляж |
    Информация о звуке#2: Русский: 48 kHz/24-bit, DTS 5.1, 1510.00 kbps avg | Дубляж |
    Информация о звуке#3: Русский: 48 kHz, AC3, 3/2 (L, C, R, l, r) + LFE ch, 640.00 kbps avg |Одноголосый закадровый, Д. Есарев |
    Информация о звуке#4: Русский: 48 kHz/24-bit, DTS 5.1, 1510.00 kbps avg |Одноголосый закадровый, Д. Есарев|
    Информация о звуке#5: Русский: 48 kHz/24-bit, DTS 5.1, 1510.00 kbps avg |Одноголосый закадровый, А. Матвеев|
    Информация о звуке#6: Русский: 48 kHz, AC3, 3/2 (L, C, R, l, r) + LFE ch, 640.00 kbps avg |Одноголосый закадровый, А. Матвеев|
    Информация о звуке#7: Английский: 48 kHz/24-bit, DTS 5.1, 1510.00 kbps avg |Оригинал|
    Время просмотра: 02: 00: 21
    Перевод текста: Дублированный, авторский одноголосый закадровый
    Субтитры: Русские (forced, full), английские (full, SDH)
    MI
    Общее
    Уникальный идентификатор : 181095043470782753304038730344329966926 (0x883DA2FEC63F40B8B5F854781930F54E)
    Полное имя : C: Mad.Max.Fury.Road.2015.BDRip.1080p.bog3417.mkv
    Формат : Matroska
    Версия формата : Version 2
    Размер файла : 17, 2 Гбайт
    Продолжительность : 2 ч. 0 м.
    Общий поток : 20, 5 Мбит/сек
    Название фильма : by_bog3417
    Дата кодирования : UTC 2015-08-15 08: 34: 33
    Программа кодирования : mkvmerge v7.9.0 (;Birds;) 64bit
    Библиотека кодирования : libebml v1.3.1 + libmatroska v1.4.2
    Видео
    Идентификатор : 1
    Формат : AVC
    Формат/Информация : Advanced Video Codec
    Профиль формата : High@L4.1
    Параметр CABAC формата : Да
    Параметр ReFrames формата : 4 кадра
    Идентификатор кодека : V_MPEG4/ISO/AVC
    Продолжительность : 2 ч. 0 м.
    Битрейт : 12, 5 Мбит/сек
    Ширина : 1920 пикселей
    Высота : 800 пикселей
    Соотношение сторон : 2, 40: 1
    Режим частоты кадров : Постоянный
    Частота кадров : 23, 976 кадра/сек
    Цветовое пространство : YUV
    Субдискретизация насыщенности : 4: 2: 0
    Битовая глубина : 8 бит
    Тип развёртки : Прогрессивная
    Бит/(Пиксели*Кадры) : 0.339
    Размер потока : 10, 2 Гбайт (59%)
    Заголовок : by_bog3417
    Библиотека кодирования : x264 core 146 r2538 121396c
    Настройки программы : cabac=1/ref=4/deblock=1: -3: -3/analyse=0x3: 0x33/me=umh/subme=11/psy=1/psy_rd=1.00: 0.00/mixed_ref=1/me_range=32/chroma_me=1/trellis=2/8x8dct=1/cqm=0/deadzone=21, 11/fast_pskip=0/chroma_qp_offset=-2/threads=12/lookahead_threads=2/sliced_threads=0/nr=0/decimate=0/interlaced=0/bluray_compat=0/constrained_intra=0/bframes=9/b_pyramid=2/b_adapt=2/b_bias=0/direct=3/weightb=1/open_gop=0/weightp=2/keyint=240/keyint_min=23/scenecut=40/intra_refresh=0/rc=2pass/mbtree=0/bitrate=12500/ratetol=1.0/qcomp=0.60/qpmin=0/qpmax=69/qpstep=4/cplxblur=20.0/qblur=0.5/ip_ratio=1.40/pb_ratio=1.30/aq=3: 0.90
    Язык : English
    Default : Да
    Forced : Нет
    Аудио #1
    Идентификатор : 2
    Формат : AC-3
    Формат/Информация : Audio Coding 3
    Расширение режима : CM (complete main)
    Параметр Endianness формата : Big
    Идентификатор кодека : A_AC3
    Продолжительность : 2 ч. 0 м.
    Вид битрейта : Постоянный
    Битрейт : 640 Кбит/сек
    Каналы : 6 каналов
    Расположение каналов : Front: L C R, Side: L R, LFE
    Частота : 48, 0 КГц
    Метод сжатия : С потерями
    Размер потока : 551 Мбайт (3%)
    Заголовок : DUB
    Язык : Russian
    Default : Да
    Forced : Нет
    Аудио #2
    Идентификатор : 3
    Формат : DTS
    Формат/Информация : Digital Theater Systems
    Режим : 16
    Параметр Endianness формата : Big
    Идентификатор кодека : A_DTS
    Продолжительность : 2 ч. 0 м.
    Вид битрейта : Постоянный
    Битрейт : 1509 Кбит/сек
    Каналы : 6 каналов
    Расположение каналов : Front: L C R, Side: L R, LFE
    Частота : 48, 0 КГц
    Битовая глубина : 24 бит
    Метод сжатия : С потерями
    Размер потока : 1, 27 Гбайт (7%)
    Заголовок : DUB
    Язык : Russian
    Default : Нет
    Forced : Нет
    Аудио #3
    Идентификатор : 4
    Формат : AC-3
    Формат/Информация : Audio Coding 3
    Расширение режима : CM (complete main)
    Параметр Endianness формата : Big
    Идентификатор кодека : A_AC3
    Продолжительность : 2 ч. 0 м.
    Вид битрейта : Постоянный
    Битрейт : 640 Кбит/сек
    Каналы : 6 каналов
    Расположение каналов : Front: L C R, Side: L R, LFE
    Частота : 48, 0 КГц
    Метод сжатия : С потерями
    Размер потока : 551 Мбайт (3%)
    Заголовок : Esarev
    Язык : Russian
    Default : Нет
    Forced : Нет
    Аудио #4
    Идентификатор : 5
    Формат : DTS
    Формат/Информация : Digital Theater Systems
    Профиль формата : ES
    Режим : 16
    Параметр Endianness формата : Big
    Идентификатор кодека : A_DTS
    Продолжительность : 2 ч. 0 м.
    Вид битрейта : Постоянный
    Битрейт : 1509 Кбит/сек
    Каналы : 6 каналов
    Расположение каналов : Front: L C R, Side: L R, LFE
    Частота : 48, 0 КГц
    Битовая глубина : 24 бит
    Метод сжатия : С потерями
    Размер потока : 1, 27 Гбайт (7%)
    Заголовок : Esarev
    Язык : Russian
    Default : Нет
    Forced : Нет
    Аудио #5
    Идентификатор : 6
    Формат : DTS
    Формат/Информация : Digital Theater Systems
    Режим : 16
    Параметр Endianness формата : Big
    Идентификатор кодека : A_DTS
    Продолжительность : 2 ч. 0 м.
    Вид битрейта : Постоянный
    Битрейт : 1509 Кбит/сек
    Каналы : 6 каналов
    Расположение каналов : Front: L C R, Side: L R, LFE
    Частота : 48, 0 КГц
    Битовая глубина : 24 бит
    Метод сжатия : С потерями
    Размер потока : 1, 27 Гбайт (7%)
    Заголовок : Matveev
    Язык : Russian
    Default : Нет
    Forced : Нет
    Аудио #6
    Идентификатор : 7
    Формат : AC-3
    Формат/Информация : Audio Coding 3
    Расширение режима : CM (complete main)
    Параметр Endianness формата : Big
    Идентификатор кодека : A_AC3
    Продолжительность : 2 ч. 0 м.
    Вид битрейта : Постоянный
    Битрейт : 640 Кбит/сек
    Каналы : 6 каналов
    Расположение каналов : Front: L C R, Side: L R, LFE
    Частота : 48, 0 КГц
    Метод сжатия : С потерями
    Размер потока : 551 Мбайт (3%)
    Заголовок : Matveev
    Язык : Russian
    Default : Нет
    Forced : Нет
    Аудио #7
    Идентификатор : 8
    Формат : DTS
    Формат/Информация : Digital Theater Systems
    Режим : 16
    Параметр Endianness формата : Big
    Идентификатор кодека : A_DTS
    Продолжительность : 2 ч. 0 м.
    Вид битрейта : Постоянный
    Битрейт : 1510 Кбит/сек
    Каналы : 6 каналов
    Расположение каналов : Front: L C R, Side: L R, LFE
    Частота : 48, 0 КГц
    Битовая глубина : 24 бит
    Метод сжатия : С потерями
    Размер потока : 1, 27 Гбайт (7%)
    Язык : English
    Default : Нет
    Forced : Нет
    Текст #1
    Идентификатор : 9
    Формат : UTF-8
    Идентификатор кодека : S_TEXT/UTF8
    Идентификатор кодека/Информация : UTF-8 Plain Text
    Язык : Russian
    Default : Да
    Forced : Нет
    Текст #2
    Идентификатор : 10
    Формат : UTF-8
    Идентификатор кодека : S_TEXT/UTF8
    Идентификатор кодека/Информация : UTF-8 Plain Text
    Язык : Russian
    Default : Нет
    Forced : Нет
    Текст #3
    Идентификатор : 11
    Формат : UTF-8
    Идентификатор кодека : S_TEXT/UTF8
    Идентификатор кодека/Информация : UTF-8 Plain Text
    Заголовок : English
    Язык : English
    Default : Нет
    Forced : Нет
    Текст #4
    Идентификатор : 12
    Формат : UTF-8
    Идентификатор кодека : S_TEXT/UTF8
    Идентификатор кодека/Информация : UTF-8 Plain Text
    Заголовок : English SDH
    Язык : English
    Default : Нет
    Forced : Нет
    Меню
    00: 00: 00.000 : en: 00: 00: 00.000
    00: 10: 42.475 : en: 00: 10: 42.475
    00: 19: 06.437 : en: 00: 19: 06.437
    00: 30: 12.310 : en: 00: 30: 12.310
    00: 42: 55.615 : en: 00: 42: 55.615
    00: 49: 33.345 : en: 00: 49: 33.345
    00: 59: 55.175 : en: 00: 59: 55.175
    01: 13: 02.545 : en: 01: 13: 02.545
    01: 22: 08.924 : en: 01: 22: 08.924
    01: 30: 02.731 : en: 01: 30: 02.731
    01: 40: 39.867 : en: 01: 40: 39.867
    01: 49: 12.546 : en: 01: 49: 12.546
    01: 53: 06.279 : en: 01: 53: 06.279

    Скриншоты




    Размер скачиваемого торрента: 17.20 GB (18467044778 Bytes)

    Безумный Макс: Дорога ярости/Mad Max: Fury Road (2015) BDRip 1080p | D, A
    загрузка...
    Рейтинг →
     (голосов: 1, оценка 5/5, голосовать можно 1 раз )

    Другие торренты по теме:

  • Безумный Макс 3: Под куполом грома / Mad Max Beyond Thunderdome (1985) HDTV 1080p торрент скачать бесплатно
  • Безумный Макс 2: Воин дороги / Mad Max 2 / The Road Warrior (1981) BDRip 1080p | UNRATED торрент скачать бесплатно
  • Безумный Макс: Трилогия / Mad Max (1979-1985) BDRip торрент скачать бесплатно
  • Безумный Макс 3: Под куполом грома / Mad Max Beyond Thunderdome (1985) BDRip от HQCLUB торрент скачать бесплатно
  • Безумный Макс 3: Под куполом грома / Mad Max Beyond Thunderdome (1985) HDRip от Scarabey | D торрент скачать бесплатно
  • Безумный Макс 2: Воин дороги / Mad Max 2: The Road Warrior (1981) HDRip от Scarabey | D торрент скачать бесплатно
  • Безумный Макс / Mad Max (1979) HDRip от Scarabey | D торрент скачать бесплатно
  • Безумный Макс 3: Под куполом грома / Mad Max Beyond Thunderdome (1985) HDRip | КПК торрент скачать бесплатно


    • Комментарии (0):

      Информация

      Информация

        Посетители, находящиеся в группе Гости, не могут оставлять комментарии в данной новости.

        ↓ Меню



        ↓ Опрос

        А Вы добавили сайт в закладки?
        Да
        Не


        Top 10 за неделю (Фильмы)