.
Авторизация | Регистрация




Дабл трабл (2015) WEB-DLRip-AVC скачать торрент бесплатно

Опубликовал: Админ | Дата: 17-08-2015, 05:00 | Просмотров: 185




Детально о кино
Русское название: Дабл трабл
Создали в: 2015
Категория жанра: комедия
Главный режиссер: Эдуард Оганесян

Актеры
Даниил Белых, Екатерина Варнава, Лера Куликова, Даниил Кузнец, Слава, Сергей Мезенцев, Владимир Тишко, Юлия Морозова, Лена Горностаева

Сюжет фильма

Роман ведет холостяцкий образ жизни и свое шоу на радио. Как заправский психолог он раздает советы слушателям, приправляя их колкими шутками. Пока одна из них не оборачивается против него самого. На вопрос 20-летней Алены, ехать ли ей к отцу, Роман отвечает Конечно! Я был бы рад. Он не знает, что в эфире — плод его случайной связи, а он сам в одночасье стал не только отцом, но и дедушкой Алениного сына. Новоиспеченные родственники погружают в ад беззаботного Романа и его девушку Сашу, светскую львицу и владелицу радиостанции. Не меньшее разочарование ждет и Алену. Только чудо сможет сделать их четверых одной семьей…

Снималось в: Россия
Киностудия: Базелевс Продакшн
Время просмотра: 01: 20: 21
Перевод текста: Оригинал
Файл
Кодек для видео: MPEG-4 AVC (MKV)
Качество фильма: WEB-DLRip-AVC
Информация о видео: AVC, 980x412, ~1850 Kbps
Информация о звуке: АС3, 6 ch, 384 Кбит/с
Субтитры: нет
M/I
General
Unique ID : 160681683418061562406707228099316771933 (0x78E22AA3BCDBD533B73F6128B3CB6C5D)
Complete name : F: Дабл трабл.2015.O.WEB-DLRIP_AVC.-=DoMiNo=-.mkv
Format : Matroska
Format version : Version 4/Version 2
File size : 1.32 GiB
Duration : 1h 23mn
Overall bit rate : 2 264 Kbps
Writing application : XviD4PSP 7.0.163
Writing library : Lavf56.25.101
ENCODING_INFO : MATROSKA, WEBM MKV/H264 X264 VBR-2P 1878kbps Custom/AC3 COPY
Video
ID : 1
Format : AVC
Format/Info : Advanced Video Codec
Format profile : High@L4.1
Format settings, CABAC : Yes
Format settings, ReFrames : 12 frames
Codec ID : V_MPEG4/ISO/AVC
Duration : 1h 23mn
Bit rate : 1 878 Kbps
Width : 980 pixels
Height : 412 pixels
Display aspect ratio : 2.40: 1
Frame rate mode : Constant
Frame rate : 24.000 fps
Color space : YUV
Chroma subsampling : 4: 2: 0
Bit depth : 8 bits
Scan type : Progressive
Bits/(Pixel*Frame) : 0.194
Stream size : 1.07 GiB (81%)
Writing library : x264 core 148 r2579M 73ae2d1
Encoding settings : cabac=1/ref=12/deblock=1: -3: -3/analyse=0x3: 0x133/me=umh/subme=11/psy=1/psy_rd=1, 00: 0, 20/mixed_ref=1/me_range=32/chroma_me=1/trellis=2/8x8dct=1/cqm=0/deadzone=21, 11/fast_pskip=0/chroma_qp_offset=-3/threads=4/lookahead_threads=1/sliced_threads=0/nr=0/decimate=1/interlaced=0/bluray_compat=0/constrained_intra=0/bframes=11/b_pyramid=2/b_adapt=2/b_bias=0/direct=3/weightb=1/open_gop=0/weightp=2/keyint=240/keyint_min=24/scenecut=40/intra_refresh=0/rc=2pass/mbtree=0/bitrate=1878/ratetol=1, 0/qcomp=0, 60/qpmin=0/qpmax=69/qpstep=4/cplxblur=20, 0/qblur=0, 5/ip_ratio=1, 40/pb_ratio=1, 30/aq=1: 1, 00
Language : English
Default : Yes
Forced : No
Color range : Limited
Color primaries : BT.709
Transfer characteristics : BT.709
Matrix coefficients : BT.709
Audio
ID : 2
Format : AC-3
Format/Info : Audio Coding 3
Mode extension : CM (complete main)
Format settings, Endianness : Big
Codec ID : A_AC3
Duration : 1h 23mn
Bit rate mode : Constant
Bit rate : 384 Kbps
Channel(s) : 6 channels
Channel positions : Front: L C R, Side: L R, LFE
Sampling rate : 48.0 KHz
Bit depth : 32 bits
Compression mode : Lossy
Stream size : 230 MiB (17%)
Language : Russian
Default : Yes
Forced : No
Menu
00: 00: 00.000 : : глава 1
00: 04: 26.000 : : глава 2
00: 09: 48.000 : : глава 3
00: 15: 58.000 : : глава 4
00: 19: 37.000 : : глава 5
00: 27: 03.000 : : глава 6
00: 30: 57.000 : : глава 7
00: 37: 24.000 : : глава 8
00: 43: 00.000 : : глава 9
00: 47: 37.000 : : глава 10
00: 52: 40.000 : : глава 11
00: 57: 54.000 : : глава 12
01: 02: 45.000 : : глава 13
01: 09: 28.000 : : глава 14
01: 14: 28.000 : : глава 15
01: 19: 51.000 : : глава 16

Размер скачиваемого торрента: 1.32 GB (1422062251 Bytes)

Дабл трабл (2015) WEB-DLRip-AVC
загрузка...
Рейтинг →
 (голосов: 1, оценка 3/5, голосовать можно 1 раз )

Другие торренты по теме:



    Комментарии (0):

    Информация

    Информация

      Посетители, находящиеся в группе Гости, не могут оставлять комментарии в данной новости.

      ↓ Меню



      ↓ Опрос

      А Вы добавили сайт в закладки?
      Да
      Не


      Top 10 за неделю (Фильмы)