.
Авторизация | Регистрация
Хочешь лучшие торренты? Добавь свой email!
Добавить
» » Безумный Макс: Дорога ярости / Mad Max: Fury Road (2015) BDRip 1080p | 3D-Video | HSBS | D, A торрент скачать бесплатно




    Безумный Макс: Дорога ярости / Mad Max: Fury Road (2015) BDRip 1080p | 3D-Video | HSBS | D, A торрент скачать бесплатно

    Опубликовал: Админ | Дата: 17-08-2015, 05:01 | Просмотров: 251



    Русское название: Безумный Макс: Дорога ярости
    Русское название в мировом прокате: Mad Max: Fury Road
    Создали в: 2015
    Категория жанра: Фантастика, боевик, триллер, приключения, постапокалипсис
    Главный режиссер: Джордж Миллер

    Актеры
    Том Харди, Шарлиз Терон, Николас Холт, Хью Кияс-Бёрн, Джош Хелман, Нэйтан Джонс, Зои Кравиц, Роузи Хантингтон-Уайтли, Райли Кио, Эбби Ли, Кортни Итон, Джон Ховард, Ричард Картер, Иота, Энгус Сэмпсон, Дженнифер Хэйгэн, Меган Гэйл, Мелисса Яффер, Мелита Юришич, Джиллиан Джонс

    Описание фильма
    Вскоре после отмщения за смерть жены и сына, Макс Рокатански покинул ряды Основного силового патруля и уехал в глушь, где скитается в одиночестве, пока мир медленно падает в последствии нефтяного кризиса и глобальной войны. Не имея ничего, кроме своей машины Перехватчик, Максу предстоит научиться, как выжить в пост-апокалиптической пустоши и сражаться с жестокими, безжалостными воинами, которые населяют её.
    Снималось в: Австралия, США, Kennedy Miller Productions, Village Roadshow Pictures
    Время просмотра: 02: 00: 21
    Перевод текста: Дублированный, авторский (Есарев, Матвеев)
    Субтитры: Русские, английские
    Качество фильма: BDRip 1080p
    Информация о видео: MPEG-4 AVC, 8802 Кбит/с, 1920x800
    Информация о звуке: Русский, английский ( DTS, 6 ch, 1510 Кбит/с )


    MI
    Общее
    Уникальный идентификатор : 206610101130986990996227835048060076521 (0x9B6FA8767EF4D0B19577793A3CD141E9)
    Полное имя : Bezumnyi.Maks.2015.BDRip.1080p.Half-SBS.mkv
    Формат : Matroska
    Версия формата : Version 4/Version 2
    Размер файла : 12, 5 Гбайт
    Продолжительность : 2 ч. 0 м.
    Общий поток : 14, 8 Мбит/сек
    Дата кодирования : UTC 2015-08-15 13: 29: 28
    Программа кодирования : mkvmerge v8.2.0 (;World of Adventure;) 64bit
    Библиотека кодирования : libebml v1.3.1 + libmatroska v1.4.2
    Attachements : Mad-Max_3A-Fury-Road.jpg
    Видео
    Идентификатор : 1
    Формат : AVC
    Формат/Информация : Advanced Video Codec
    Профиль формата : High@L4.1
    MultiView_Count : 2
    MultiView_Layout : Side by Side (left eye first)
    Параметр CABAC формата : Да
    Параметр ReFrames формата : 5 кадров
    Идентификатор кодека : V_MPEG4/ISO/AVC
    Продолжительность : 2 ч. 0 м.
    Битрейт : 8806 Кбит/сек
    Ширина : 1920 пикселей
    Высота : 800 пикселей
    Соотношение сторон : 2, 40: 1
    Режим частоты кадров : Постоянный
    Частота кадров : 23, 976 кадра/сек
    Цветовое пространство : YUV
    Субдискретизация насыщенности : 4: 2: 0
    Битовая глубина : 8 бит
    Тип развёртки : Прогрессивная
    Бит/(Пиксели*Кадры) : 0.239
    Размер потока : 7, 16 Гбайт (57%)
    Библиотека кодирования : x264 core 148 r2579 73ae2d1
    Настройки программы : cabac=1/ref=5/deblock=1: 0: 0/analyse=0x3: 0x133/me=umh/subme=7/psy=1/psy_rd=1.00: 0.00/mixed_ref=1/me_range=16/chroma_me=1/trellis=1/8x8dct=1/cqm=0/deadzone=21, 11/fast_pskip=0/chroma_qp_offset=-2/threads=12/lookahead_threads=2/sliced_threads=0/nr=0/decimate=1/interlaced=0/bluray_compat=0/constrained_intra=0/bframes=3/b_pyramid=2/b_adapt=1/b_bias=0/direct=1/weightb=1/open_gop=0/weightp=2/keyint=250/keyint_min=23/scenecut=40/intra_refresh=0/rc_lookahead=40/rc=2pass/mbtree=1/bitrate=8806/ratetol=1.0/qcomp=0.60/qpmin=0/qpmax=69/qpstep=4/cplxblur=20.0/qblur=0.5/ip_ratio=1.40/aq=1: 1.00
    Язык : English
    Default : Да
    Forced : Нет
    Аудио #1
    Идентификатор : 2
    Формат : DTS
    Формат/Информация : Digital Theater Systems
    Режим : 16
    Параметр Endianness формата : Big
    Идентификатор кодека : A_DTS
    Продолжительность : 2 ч. 0 м.
    Вид битрейта : Постоянный
    Битрейт : 1509 Кбит/сек
    Каналы : 6 каналов
    Расположение каналов : Front: L C R, Side: L R, LFE
    Частота : 48, 0 КГц
    Битовая глубина : 24 бит
    Метод сжатия : С потерями
    Размер потока : 1, 27 Гбайт (10%)
    Заголовок : DTS/5.1/1510 kbps/DUB
    Язык : Russian
    Default : Да
    Forced : Нет
    Аудио #2
    Идентификатор : 3
    Формат : DTS
    Формат/Информация : Digital Theater Systems
    Профиль формата : ES
    Режим : 16
    Параметр Endianness формата : Big
    Идентификатор кодека : A_DTS
    Продолжительность : 2 ч. 0 м.
    Вид битрейта : Постоянный
    Битрейт : 1509 Кбит/сек
    Каналы : 6 каналов
    Расположение каналов : Front: L C R, Side: L R, LFE
    Частота : 48, 0 КГц
    Битовая глубина : 24 бит
    Метод сжатия : С потерями
    Размер потока : 1, 27 Гбайт (10%)
    Заголовок : DTS/5.1/1510 kbps/Esarev
    Язык : Russian
    Default : Нет
    Forced : Нет
    Аудио #3
    Идентификатор : 4
    Формат : DTS
    Формат/Информация : Digital Theater Systems
    Режим : 16
    Параметр Endianness формата : Big
    Идентификатор кодека : A_DTS
    Продолжительность : 2 ч. 0 м.
    Вид битрейта : Постоянный
    Битрейт : 1509 Кбит/сек
    Каналы : 6 каналов
    Расположение каналов : Front: L C R, Side: L R, LFE
    Частота : 48, 0 КГц
    Битовая глубина : 24 бит
    Метод сжатия : С потерями
    Размер потока : 1, 27 Гбайт (10%)
    Заголовок : DTS/5.1/1510 kbps/Matveev
    Язык : Russian
    Default : Нет
    Forced : Нет
    Аудио #4
    Идентификатор : 5
    Формат : DTS
    Формат/Информация : Digital Theater Systems
    Режим : 16
    Параметр Endianness формата : Big
    Идентификатор кодека : A_DTS
    Продолжительность : 2 ч. 0 м.
    Вид битрейта : Постоянный
    Битрейт : 1510 Кбит/сек
    Каналы : 6 каналов
    Расположение каналов : Front: L C R, Side: L R, LFE
    Частота : 48, 0 КГц
    Битовая глубина : 24 бит
    Метод сжатия : С потерями
    Размер потока : 1, 27 Гбайт (10%)
    Заголовок : DTS/5.1/1510 kbps/Original
    Язык : English
    Default : Нет
    Forced : Нет
    Текст #1
    Идентификатор : 6
    Формат : UTF-8
    Идентификатор кодека : S_TEXT/UTF8
    Идентификатор кодека/Информация : UTF-8 Plain Text
    Заголовок : Forced
    Язык : Russian
    Default : Да
    Forced : Нет
    Текст #2
    Идентификатор : 7
    Формат : UTF-8
    Идентификатор кодека : S_TEXT/UTF8
    Идентификатор кодека/Информация : UTF-8 Plain Text
    Заголовок : Full
    Язык : Russian
    Default : Нет
    Forced : Нет
    Текст #3
    Идентификатор : 8
    Формат : UTF-8
    Идентификатор кодека : S_TEXT/UTF8
    Идентификатор кодека/Информация : UTF-8 Plain Text
    Заголовок : SDH
    Язык : English
    Default : Нет
    Forced : Нет
    Текст #4
    Идентификатор : 9
    Формат : UTF-8
    Идентификатор кодека : S_TEXT/UTF8
    Идентификатор кодека/Информация : UTF-8 Plain Text
    Заголовок : Full
    Язык : English
    Default : Нет
    Forced : Нет
    Меню
    00: 00: 00.000 : en: 00: 00: 00.000
    00: 10: 42.475 : en: 00: 10: 42.475
    00: 19: 06.437 : en: 00: 19: 06.437
    00: 30: 12.310 : en: 00: 30: 12.310
    00: 42: 55.615 : en: 00: 42: 55.615
    00: 49: 33.345 : en: 00: 49: 33.345
    00: 59: 55.175 : en: 00: 59: 55.175
    01: 13: 02.545 : en: 01: 13: 02.545
    01: 22: 08.924 : en: 01: 22: 08.924
    01: 30: 02.731 : en: 01: 30: 02.731
    01: 40: 39.867 : en: 01: 40: 39.867
    01: 49: 12.546 : en: 01: 49: 12.546
    01: 53: 06.279 : en: 01: 53: 06.279

    Размер скачиваемого торрента: 12.48 GB (13400701282 Bytes)

    Безумный Макс: Дорога ярости/Mad Max: Fury Road (2015) BDRip 1080p | 3D-Video | HSBS | D, A
    загрузка...
    Рейтинг →
     (голосов: 1, оценка 4/5, голосовать можно 1 раз )

    Другие торренты по теме:

  • Безумный Макс 3: Под куполом грома / Mad Max Beyond Thunderdome (1985) HDTV 1080p
  • Безумный Макс 2: Воин дороги / Mad Max 2 / The Road Warrior (1981) BDRip 1080p | UNRATED
  • Безумный Макс: Трилогия / Mad Max (1979-1985) BDRip
  • Безумный Макс 3: Под куполом грома / Mad Max Beyond Thunderdome (1985) BDRip от HQCLUB
  • Безумный Макс 3: Под куполом грома / Mad Max Beyond Thunderdome (1985) HDRip от Scarabey | D
  • Безумный Макс 2: Воин дороги / Mad Max 2: The Road Warrior (1981) HDRip от Scarabey | D
  • Безумный Макс / Mad Max (1979) HDRip от Scarabey | D
  • Безумный Макс 3: Под куполом грома / Mad Max Beyond Thunderdome (1985) HDRip | КПК


    • Комментарии (0):

      Информация

      Информация

        Посетители, находящиеся в группе Гости, не могут оставлять комментарии в данной новости.

        ↓ Меню



        ↓ Опрос

        А Вы добавили сайт в закладки?
        Да
        Не


        Top 10 за месяц (Фильмы)