.
Авторизация | Регистрация
Хочешь лучшие торренты? Добавь свой email!
Добавить




Заложница / Taken (2008) DVD5 торрент скачать бесплатно

Опубликовал: Админ | Дата: 22-08-2015, 05:00 | Просмотров: 121



Детально о кино
Русское название: Заложница
Русское название в мировом прокате: Taken
Создали в: 2008
Категория жанра: боевик, триллер
Главный режиссер: Пьер Морель

Актеры
Лиам Нисон, Мэгги Грэйс, Фамке Янссен, Оливье Рабурден, Лиленд Орсер, Ксандер Беркли, Холли Вэлэнс, Джон Грайз, Дэвид Уоршофски, Жерар Уоткинс

Сюжет фильма

Молодую девушку похитили во время туристического отдыха. Её отец пускается в опасное приключение-спасение, чтобы вернуть дочь и наказать виновных лично.

Снималось в: Франция
Киностудия: Canal+ fr, Europa Corp., TPS Star
Время просмотра: 89 мин./01: 29
Перевод текста: полное дублирование
Оригинальная дорожка: отсутствует
Файл
Кодек для видео: MPEG2
Качество фильма: DVD5 Двадцатый Век Фокс СНГ
Информация о видео: PAL 16: 9 (720x576@1024x576) VBR 5278 Kbps, 25.000 fps
Информация о звуке 1: Dolby AC3, 6 ch, 48.0 KHz, 384 Кbps (русский)
Информация о звуке 2: DTS 6 ch, 48.0 KHz, 768 Кbps (русский)
Субтитры: русские, украинские, казахские
MediaInfo
Общее
Полное имя : D: Taken.DVD9VIDEO_TSVTS_01_1.VOB
Формат : MPEG-PS
Размер файла : 1024 Мбайт
Продолжительность : 21 м.
Режим общего битрейта : Переменный
Общий поток : 6547 Кбит/сек
Видео
Идентификатор : 224 (0xE0)
Формат : MPEG Video
Версия формата : Version 2
Профиль формата : Main@Main
Параметр BVOP формата : Да
Параметр матрицы формата : Выборочная
Параметр GOP формата : M=3, N=15
Продолжительность : 21 м.
Вид битрейта : Переменный
Битрейт : 5278 Кбит/сек
Максимальный битрейт : 7500 Кбит/сек
Ширина : 720 пикселей
Высота : 576 пикселей
Соотношение сторон : 16: 9
Частота кадров : 25, 000 кадров/сек
Стандарт вещания : PAL
Цветовое пространство : YUV
Субдискретизация насыщенности : 4: 2: 0
Битовая глубина : 8 бит
Тип развёртки : Прогрессивная
Порядок развёртки : Верхнее поле первое
Метод сжатия : С потерями
Бит/(Пиксели*Кадры) : 0.509
Временной код первого кадра : 00: 59: 59: 00
Оригинал временного кода : Group of pictures t_head
Размер потока : 826 Мбайт (81%)
Аудио #1
Идентификатор : 189 (0xBD)-128 (0x80)
Формат : AC-3
Формат/Информация : Audio Coding 3
Расширение режима : CM (complete main)
Параметр Endianness формата : Big
Режим смешивания : DVD-Video
Продолжительность : 21 м.
Вид битрейта : Постоянный
Битрейт : 384 Кбит/сек
Каналы : 6 каналов
Расположение каналов : Front: L C R, Side: L R, LFE
Частота : 48, 0 КГц
Битовая глубина : 16 бит
Метод сжатия : С потерями
Задержка видео : -16 мс.
Размер потока : 60, 1 Мбайт (6%)
Аудио #2
Идентификатор : 189 (0xBD)-137 (0x89)
Формат : DTS
Формат/Информация : Digital Theater Systems
Режим : 16
Параметр Endianness формата : Big
Режим смешивания : DVD-Video
Продолжительность : 21 м.
Вид битрейта : Постоянный
Битрейт : 755 Кбит/сек
Каналы : 6 каналов
Расположение каналов : Front: L C R, Side: L R, LFE
Частота : 48, 0 КГц
Битовая глубина : 24 бит
Метод сжатия : С потерями
Задержка видео : -6 мс.
Размер потока : 118 Мбайт (12%)
Текст #1
Идентификатор : 189 (0xBD)-32 (0x20)
Формат : RLE
Формат/Информация : Run-length encoding
Режим смешивания : DVD-Video
Текст #2
Идентификатор : 189 (0xBD)-33 (0x21)
Формат : RLE
Формат/Информация : Run-length encoding
Режим смешивания : DVD-Video
Текст #3
Идентификатор : 189 (0xBD)-34 (0x22)
Формат : RLE
Формат/Информация : Run-length encoding
Режим смешивания : DVD-Video
Меню
Скриншоты


Залил: carisha
Размер скачиваемого торрента: 4.27 GB (4585748480 Bytes)

Заложница/Taken (2008) DVD5
загрузка...
Рейтинг →
 (голосов: 1, оценка 5/5, голосовать можно 1 раз )

Другие торренты по теме:

  • Заложница 2 / Taken 2 (2012) WEB-DLRip от Torrent-Xzona | КПК
  • Заложница: Дилогия / Taken: Dilogy (2008-2012) BDRip 1080p
  • Заложница / Held Hostage (2009) DVDRip скачать через торрент бесплатно
  • Заложница / Taken (2008) BDRip-AVC от Leo.pard | D скачать через торрент бесплатно
  • Заложница 2 / Taken 2 (2012) BDRip-AVC от Leo.pard | Unrated Extended Cut | D
  • Заложница 2 / Taken 2 (2012) BDRip | Гаврилов | Расширенная версия скачать через торрент бесплатно
  • Заложница / Taken (2008) BDRip 720p от Leonardo and Scarabey скачать через торрент бесплатно
  • Заложница 3 / Taken 3 (2015) HD 1080p | Трейлер скачать через торрент бесплатно


    • Комментарии (0):

      Информация

      Информация

        Посетители, находящиеся в группе Гости, не могут оставлять комментарии в данной новости.

        ↓ Меню



        ↓ Опрос

        А Вы добавили сайт в закладки?
        Да
        Не


        Top 10 за месяц (Фильмы)