.
Авторизация | Регистрация
» » Сновидения / In Dreams (1999) WEB-DLRip-AVC | P скачать торрент бесплатно




    Сновидения / In Dreams (1999) WEB-DLRip-AVC | P скачать торрент бесплатно

    Опубликовал: Админ | Дата: 27-08-2015, 05:01 | Просмотров: 136


    Сновидения/In Dreams (1999) WEB-DLRip-AVC

    Слоган You don;t have to sleep to dream

    Создали в: США| Amblin Entertainment
    Категория жанра: Фэнтези, Триллер, Драма
    Главный режиссер: Нил Джордан
    Актеры: Аннетт Бенинг, Кэти Сагона, Эйдан Куинн, Роберт Дауни мл., Пол Гилфойл, Кэтлин Ланглуа, Дженнифер Берри, Эмма Дж. Браун, Дженнифер Драгон, Саманта Келли

    Описание фильма

    Клэр Купер видит жуткие сны. В этих снах таинственный человек ведёт куда-то за руку маленькую девочку. Клэр знает, что этот человек приносит горе и смерть. И от него нет спасения, ибо этот человек — само зло во плоти… Постепенно страшные сны становятся предвестниками кошмаров, которые начинают происходить с Клэр наяву. Парализованная ужасом женщина ещё не знает, что в её жизнь намерен ворваться безжалостный детоубийца, с мозгом которого её уже давно соединяет телепатическая связь…
    Релиз подготовил: FAGOT100(NNM-CLUB)
    Время просмотра: 01: 39: 36
    Качество фильма видео: WEB-DLRip-AVC
    Перевод текста: Профессиональный (многоголосый, закадровый)
    Субтитры: Отсутствуют
    Информация о видео: AVC, 1024x576 (16: 9), 23.976 fps, 2 249 Kbps (0.159 bit/pixel)
    Информация о звуке: AC-3, 48.0 KHz, 2 ch, 192 Kbps, CBR (Russian)
    Mediainfo:
    Формат : Matroska
    Версия формата : Version 2
    Размер файла : 1, 70 Гбайт
    Продолжительность : 1 ч. 39 м.
    Общий поток : 2442 Кбит/сек
    Дата кодирования : UTC 2015-08-26 20: 08: 17
    Программа кодирования : mkvmerge v5.3.0 (;I could have danced;) built on Feb 9 2012 10: 38: 07
    Библиотека кодирования : libebml v1.2.3 + libmatroska v1.3.0
    Attachment : Yes
    Видео
    Идентификатор : 1
    Формат : AVC
    Формат/Информация : Advanced Video Codec
    Профиль формата : High@L4.1
    Параметр CABAC формата : Да
    Параметр ReFrames формата : 10 кадров
    Идентификатор кодека : V_MPEG4/ISO/AVC
    Продолжительность : 1 ч. 39 м.
    Битрейт : 2249 Кбит/сек
    Ширина : 1024 пикселя
    Высота : 576 пикселей
    Соотношение сторон : 16: 9
    Режим частоты кадров : Постоянный
    Частота кадров : 23, 976 кадра/сек
    Цветовое пространство : YUV
    Субдискретизация насыщенности : 4: 2: 0
    Битовая глубина : 8 бит
    Тип развёртки : Прогрессивная
    Бит/(Пиксели*Кадры) : 0.159
    Размер потока : 1, 53 Гбайт (90%)
    Библиотека кодирования : x264 core 146 r2538 121396c
    Настройки программы : cabac=1/ref=10/deblock=1: -3: -3/analyse=0x3: 0x133/me=umh/subme=11/psy=1/psy_rd=1.00: 0.05/mixed_ref=1/me_range=32/chroma_me=1/trellis=2/8x8dct=1/cqm=0/deadzone=21, 11/fast_pskip=0/chroma_qp_offset=-3/threads=12/lookahead_threads=1/sliced_threads=0/nr=0/decimate=0/interlaced=0/bluray_compat=0/constrained_intra=0/bframes=6/b_pyramid=2/b_adapt=2/b_bias=0/direct=3/weightb=1/open_gop=0/weightp=2/keyint=240/keyint_min=23/scenecut=40/intra_refresh=0/rc=2pass/mbtree=0/bitrate=2249/ratetol=1.0/qcomp=0.60/qpmin=0/qpmax=69/qpstep=4/cplxblur=20.0/qblur=0.5/ip_ratio=1.40/pb_ratio=1.30/aq=1: 1.00
    Язык : English
    Default : Да
    Forced : Нет
    Аудио
    Идентификатор : 2
    Формат : AC-3
    Формат/Информация : Audio Coding 3
    Расширение режима : CM (complete main)
    Параметр Endianness формата : Big
    Идентификатор кодека : A_AC3
    Продолжительность : 1 ч. 39 м.
    Вид битрейта : Постоянный
    Битрейт : 192 Кбит/сек
    Каналы : 2 канала
    Расположение каналов : Front: L R
    Частота : 48, 0 КГц
    Битовая глубина : 16 бит
    Метод сжатия : С потерями
    Размер потока : 137 Мбайт (8%)
    Заголовок : ПМ
    Язык : Russian
    Default : Да
    Forced : Да
    Меню
    00: 00: 00.000 : en: A Drowned Ghost Town/Main Title
    00: 04: 37.000 : en: Just Another Weird Dream
    00: 11: 59.000 : en: One Obsession or Another
    00: 16: 49.000 : en: She;s gone...
    00: 21: 17.000 : en: My Daddy Was a Dollar
    00: 25: 27.000 : en: The Dream Reader
    00: 29: 19.000 : en: Dreaming of You
    00: 34: 01.000 : en: A Little Psychosis
    00: 41: 00.000 : en: Call Him Red...
    00: 47: 34.000 : en: He;s In My Head
    00: 51: 24.000 : en: Room 401
    00: 55: 52.000 : en: His Name is Vivian
    01: 02: 40.000 : en: Follow a Dream
    01: 10: 14.000 : en: A Dreamer Like Me
    01: 18: 01.000 : en: Mommy Was a Song
    01: 21: 53.000 : en: Bad Dreams
    01: 24: 57.000 : en: Come to Mommy
    01: 27: 36.000 : en: When the Apples Fall
    01: 30: 56.000 : en: The Fairest of All
    01: 35: 23.000 : en: End Titles/In Dreams-Roy Orbison

    Скриншоты:

    Размер скачиваемого торрента: 1.70 GB (1824103820 Bytes)

    Сновидения/In Dreams (1999) WEB-DLRip-AVC | P
    загрузка...
    Рейтинг →
     (голосов: 1, оценка 5/5, голосовать можно 1 раз )

    Другие торренты по теме:



      Комментарии (0):

      Информация

      Информация

        Посетители, находящиеся в группе Гости, не могут оставлять комментарии в данной новости.

        ↓ Меню



        ↓ Опрос

        А Вы добавили сайт в закладки?
        Да
        Не


        Top 10 за неделю (Фильмы)