.
Авторизация | Регистрация
» » Святой / The Saint (1997) HDTVRip от Leon-masl | P, D скачать торрент бесплатно




    Святой / The Saint (1997) HDTVRip от Leon-masl | P, D скачать торрент бесплатно

    Опубликовал: Админ | Дата: 30-08-2015, 05:01 | Просмотров: 168



    Детально о кино
    Русское название: Святой
    Русское название в мировом прокате: The Saint
    Создали в: 1997
    Категория жанра: боевик, триллер, мелодрама, приключения
    Главный режиссер: Филлип Нойс/Phillip Noyce

    Актеры
    Вэл Килмер, Элизабет Шу, Раде Шербеджия, Валерий Николаев, Генри Гудман, Алан Армстронг, Майкл Бирн, Евгений Лазарев, Ирина Апексимова, Лев Прыгунов

    Сюжет фильма

    Вэл Килмер играет роль знаменитого шпиона Саймона Тамплиера, завоевавшего репутацию неуловимого из-за своего редчайшего дара перевоплощения. Уставший от участия в сомнительных предприятиях, Саймон решает, что следующее задание станет последним. Однако оно обещает быть нешуточным. Могущественный промышленный магнат из России Иван Третьяк поручает Саймону добыть сенсационную технологию производства самой дешевой в мире энергии, разработанную гениальным ученым Эммой Рассел. С помощью этой технологии он намерен подчинить себе Россию, переживающую не лучшие времена. В дальнейшие планы магната входит мировое господство…

    Снималось в: США, Mace Neufeld Productions, Paramount Pictures, Rysher Entertainment
    Время просмотра: 01: 51: 23
    Перевод текста: Профессиональный (многоголосый закадровый) R5, Профессиональный (многоголосый закадровый) НТВ+, Профессиональный (дублированный) Премьер-Фильм
    Файл
    Кодек для видео: XviD
    Качество фильма: HDTVRip
    Информация о видео: 704x304, 25.000 fps, XviD build 73 ~ 2019 kbps
    Информация о звуке 1: AC3, 48.0 KHz, 5 ch, 384 Kbps.......Профессиональный (многоголосый закадровый) R5
    Информация о звуке 2: AC3, 48.0 KHz, 2 ch, 192 Kbps.......Профессиональный (многоголосый закадровый) НТВ+
    Информация о звуке 3: AC3, 48.0 KHz, 2 ch, 192 Kbps.......Профессиональный (дублированный) Премьер-Фильм
    MI
    Общее
    Полное имя : The.Saint.1997.HDTVRip.3xRus.avi
    Формат : AVI
    Формат/Информация : Audio Video Interleave
    Профиль формата : OpenDML
    Размер файла : 2, 19 Гбайт
    Продолжительность : 1 ч. 51 м.
    Общий поток : 2811 Кбит/сек
    Программа кодирования : VirtualDubMod 1.5.10.2 (build 2542/release)
    Библиотека кодирования : VirtualDubMod build 2542/release
    Видео
    Идентификатор : 0
    Формат : MPEG-4 Visual
    Профиль формата : Advanced Simple@L5
    Параметр BVOP формата : 1
    Параметр QPel формата : Нет
    Параметр GMC формата : Без точки перехода
    Параметр матрицы формата : Выборочная
    Идентификатор кодека : XVID
    Идентификатор кодека/Подсказка : XviD
    Продолжительность : 1 ч. 51 м.
    Битрейт : 2019 Кбит/сек
    Ширина : 704 пикс.
    Высота : 304 пикс.
    Соотношение сторон : 2, 35: 1
    Частота кадров : 25, 000 кадр/сек
    Цветовое пространство : YUV
    Подвыборка цветности : 4: 2: 0
    Битовая глубина : 8 бит
    Тип развёртки : Прогрессивная
    Метод сжатия : С потерями
    Бит/(Пиксели*Кадры) : 0.377
    Размер потока : 1, 57 Гбайт (72%)
    Библиотека кодирования : XviD 73
    Аудио #1
    Идентификатор : 1
    Формат : AC-3
    Формат/Информация : Audio Coding 3
    Расширение режима : CM (complete main)
    Идентификатор кодека : 2000
    Продолжительность : 1 ч. 51 м.
    Вид битрейта : Постоянный
    Битрейт : 384 Кбит/сек
    Канал(ы) : 5 канала(ов)
    Расположение каналов : Front: L C R, Side: L R
    Частота : 48, 0 КГц
    Битовая глубина : 16 бит
    Метод сжатия : С потерями
    Задержка видео : 24 мс.
    Размер потока : 306 Мбайт (14%)
    Выравнивание : Разделение по промежуткам
    Продолжительность промежутка : 40 мс. (1, 00 видеокадр)
    Время предзагрузки промежутка : 500 ms
    Аудио #2
    Идентификатор : 2
    Формат : AC-3
    Формат/Информация : Audio Coding 3
    Расширение режима : CM (complete main)
    Идентификатор кодека : 2000
    Продолжительность : 1 ч. 51 м.
    Вид битрейта : Постоянный
    Битрейт : 192 Кбит/сек
    Канал(ы) : 2 канала(ов)
    Расположение каналов : Front: L R
    Частота : 48, 0 КГц
    Битовая глубина : 16 бит
    Метод сжатия : С потерями
    Размер потока : 153 Мбайт (7%)
    Выравнивание : Разделение по промежуткам
    Продолжительность промежутка : 40 мс. (1, 00 видеокадр)
    Время предзагрузки промежутка : 500 ms
    Аудио #3
    Идентификатор : 3
    Формат : AC-3
    Формат/Информация : Audio Coding 3
    Расширение режима : CM (complete main)
    Идентификатор кодека : 2000
    Продолжительность : 1 ч. 51 м.
    Вид битрейта : Постоянный
    Битрейт : 192 Кбит/сек
    Канал(ы) : 2 канала(ов)
    Расположение каналов : Front: L R
    Частота : 48, 0 КГц
    Битовая глубина : 16 бит
    Метод сжатия : С потерями
    Размер потока : 153 Мбайт (7%)
    Выравнивание : Разделение по промежуткам
    Продолжительность промежутка : 40 мс. (1, 00 видеокадр)
    Время предзагрузки промежутка : 500 ms
    Скриншоты

    Релиз подготовил: Leon-masl
    Залил: leon-masl
    Размер скачиваемого торрента: 2.19 GB (2348916736 Bytes)

    Святой/The Saint (1997) HDTVRip от Leon-masl | P, D
    загрузка...
    Рейтинг →
     (голосов: 1, оценка 3/5, голосовать можно 1 раз )

    Другие торренты по теме:

  • Капитан Гром и Святой Грааль / Ritter des heiligen Grals / El Capitn Trueno y el Santo Grial (2011) BDRip 720p торрент скачать бесплатно
  • Святой: Бездна Отчаяния / The Saint: Abyss of Despair (2013) PC торрент скачать бесплатно
  • Мать Тереза - святая во власти тьмы / Mother Teresa - Saint Of Darkness. (2010) HDTVRip 1080p от MediaClub торрент скачать бесплатно
  • Святой Джек / Saint Jack (1979) TVRip скачать через торрент бесплатно
  • Святая девушка / La nina santa (2004) DVDRip | L1 торрент скачать бесплатно
  • Святой / The Saint (1997) HDTVRip-AVC | D, P2 скачать через торрент бесплатно
  • Святой / The Saint (1997) HDTVRip от Leon-masl | P скачать торрент бесплатно
  • Святая кровь / Santa sangre (Holy Blood) / 1989 / АП (Алексеев) / BDRip скачать торрент бесплатно


    • Комментарии (0):

      Информация

      Информация

        Посетители, находящиеся в группе Гости, не могут оставлять комментарии в данной новости.

        ↓ Меню



        ↓ Опрос

        А Вы добавили сайт в закладки?
        Да
        Не


        Top 10 за неделю (Фильмы)