.
Авторизация | Регистрация
Хочешь лучшие торренты? Добавь свой email!
Добавить
» » Во всем виноват Рио / Blame It on Rio (1984) WEB-DLRip-AVC | P2, P, А торрент скачать бесплатно




    Во всем виноват Рио / Blame It on Rio (1984) WEB-DLRip-AVC | P2, P, А торрент скачать бесплатно

    Опубликовал: Админ | Дата: 2-09-2015, 05:01 | Просмотров: 186


    Во всем виноват Рио/Blame It on Rio (1984) WEB-DLRip-AVC

    Создали в: США, Sherwood
    Категория жанра: Мелодрама, Комедия
    Главный режиссер: Стэнли Донен
    Актеры: Майкл Кейн, Джозеф Болонья, Валери Харпер, Мишель Джонсон, Деми Мур, Жозе Левгой, Лупе Джильотти, Майкл Мена, Тесси Калладу, Ана Лусия Лима

    Описание фильма

    Двое друзей отправляются отдохнуть в Рио. Виктор привез с собой несовершеннолетнюю дочь Дженнифер (Мишель Джонсон - Музей восковых фигур), и Мэтью (Майкл Кейн - Отпетые мошенники) сопровождает дочь Николь (Дэми Мур - Стриптиз). Колдовская атмосфера Рио, словно пропитанная эротикой и томными вожделениями, застает их врасплох. Виктор охотится за каждой женщиной, а Мэтью, верный своей супруге скромно сопровождает его дочь в ее развлечениях. Но возбуждающие бразильские ритмы и откровенные танцы на лунном пляже делают свое дело. Не в силах устоять перед неослабевающим натиском юной обольстительницы - дочки своего друга, Мэтью вступает с ней в интимные отношения. Однако, испугавшись своего поступка, он пытается любыми путями избегать Дженнифер, которая бесстрашно преследует любовника. Они снова и снова занимаются любовью, оказываясь в водовороте комических ситуаций и увлекая всех за собой...
    Релиз подготовил: FAGOT100(NNM-CLUB)
    Время просмотра: 01: 39: 57
    Качество фильма видео: WEB-DLRip-AVC
    Перевод текста: Профессиональный (двухголосый закадровый), профессиональный (многоголосый закадровый), авторский (одноголосый закадровый) х2
    Язык субтитров: Английский
    Вид субтитров: Вшитые отключаемые
    Информация о видео: AVC, 1024x552 (1.855), 23.976 fps, 2 499 Kbps (0.184 bit/pixel)
    Информация о звуке #1: AC-3, 48.0 KHz, 2 ch, 192 Kbps, CBR (Russian) - двухголосый (НТВ+)
    Информация о звуке #2: AC-3, 48.0 KHz, 2 ch, 192 Kbps, CBR (Russian) - многоголосый (5 канал)
    Информация о звуке #3: AC-3, 48.0 KHz, 2 ch, 192 Kbps, CBR (Russian) - А.Гаврилов
    Информация о звуке #4: AC-3, 48.0 KHz, 2 ch, 192 Kbps, CBR (Russian) - П.Санаев
    Mediainfo:

    Формат : Matroska
    Версия формата : Version 2
    Размер файла : 2, 28 Гбайт
    Продолжительность : 1 ч. 39 м.
    Общий поток : 3270 Кбит/сек
    Дата кодирования : UTC 2015-08-30 16: 45: 28
    Программа кодирования : mkvmerge v5.3.0 (;I could have danced;) built on Feb 9 2012 10: 38: 07
    Библиотека кодирования : libebml v1.2.3 + libmatroska v1.3.0
    Attachment : Yes
    Видео
    Идентификатор : 1
    Формат : AVC
    Формат/Информация : Advanced Video Codec
    Профиль формата : High@L4.1
    Параметр CABAC формата : Да
    Параметр ReFrames формата : 10 кадров
    Идентификатор кодека : V_MPEG4/ISO/AVC
    Продолжительность : 1 ч. 39 м.
    Битрейт : 2499 Кбит/сек
    Ширина : 1024 пикселя
    Высота : 552 пикселя
    Соотношение сторон : 1, 85: 1
    Режим частоты кадров : Постоянный
    Частота кадров : 23, 976 кадра/сек
    Цветовое пространство : YUV
    Субдискретизация насыщенности : 4: 2: 0
    Битовая глубина : 8 бит
    Тип развёртки : Прогрессивная
    Бит/(Пиксели*Кадры) : 0.184
    Размер потока : 1, 70 Гбайт (75%)
    Библиотека кодирования : x264 core 146 r2538 121396c
    Настройки программы : cabac=1/ref=10/deblock=1: -2: -2/analyse=0x3: 0x133/me=umh/subme=10/psy=1/psy_rd=1.00: 0.00/mixed_ref=1/me_range=32/chroma_me=1/trellis=2/8x8dct=1/cqm=0/deadzone=21, 11/fast_pskip=0/chroma_qp_offset=-2/threads=12/lookahead_threads=1/sliced_threads=0/nr=0/decimate=0/interlaced=0/bluray_compat=0/constrained_intra=0/bframes=6/b_pyramid=2/b_adapt=2/b_bias=0/direct=3/weightb=1/open_gop=0/weightp=2/keyint=240/keyint_min=23/scenecut=40/intra_refresh=0/rc=2pass/mbtree=0/bitrate=2499/ratetol=1.0/qcomp=0.60/qpmin=0/qpmax=69/qpstep=4/cplxblur=20.0/qblur=0.5/ip_ratio=1.40/pb_ratio=1.30/aq=1: 1.00
    Язык : English
    Default : Да
    Forced : Нет
    Аудио #1
    Идентификатор : 2
    Формат : AC-3
    Формат/Информация : Audio Coding 3
    Расширение режима : CM (complete main)
    Параметр Endianness формата : Big
    Идентификатор кодека : A_AC3
    Продолжительность : 1 ч. 39 м.
    Вид битрейта : Постоянный
    Битрейт : 192 Кбит/сек
    Каналы : 2 канала
    Расположение каналов : Front: L R
    Частота : 48, 0 КГц
    Битовая глубина : 16 бит
    Метод сжатия : С потерями
    Размер потока : 137 Мбайт (6%)
    Заголовок : НТВ+
    Язык : Russian
    Default : Да
    Forced : Нет
    Аудио #2
    Идентификатор : 3
    Формат : AC-3
    Формат/Информация : Audio Coding 3
    Расширение режима : CM (complete main)
    Параметр Endianness формата : Big
    Идентификатор кодека : A_AC3
    Продолжительность : 1 ч. 39 м.
    Вид битрейта : Постоянный
    Битрейт : 192 Кбит/сек
    Каналы : 2 канала
    Расположение каналов : Front: L R
    Частота : 48, 0 КГц
    Битовая глубина : 16 бит
    Метод сжатия : С потерями
    Размер потока : 137 Мбайт (6%)
    Заголовок : 5 канал
    Язык : Russian
    Default : Нет
    Forced : Нет
    Аудио #3
    Идентификатор : 4
    Формат : AC-3
    Формат/Информация : Audio Coding 3
    Расширение режима : CM (complete main)
    Параметр Endianness формата : Big
    Идентификатор кодека : A_AC3
    Продолжительность : 1 ч. 39 м.
    Вид битрейта : Постоянный
    Битрейт : 192 Кбит/сек
    Каналы : 2 канала
    Расположение каналов : Front: L R
    Частота : 48, 0 КГц
    Битовая глубина : 16 бит
    Метод сжатия : С потерями
    Размер потока : 137 Мбайт (6%)
    Заголовок : Андрей Гаврилов
    Язык : Russian
    Default : Нет
    Forced : Нет
    Аудио #4
    Идентификатор : 5
    Формат : AC-3
    Формат/Информация : Audio Coding 3
    Расширение режима : CM (complete main)
    Параметр Endianness формата : Big
    Идентификатор кодека : A_AC3
    Продолжительность : 1 ч. 39 м.
    Вид битрейта : Постоянный
    Битрейт : 192 Кбит/сек
    Каналы : 2 канала
    Расположение каналов : Front: L R
    Частота : 48, 0 КГц
    Битовая глубина : 16 бит
    Метод сжатия : С потерями
    Размер потока : 137 Мбайт (6%)
    Заголовок : Павел Санаев
    Язык : Russian
    Default : Нет
    Forced : Нет
    Текст
    Идентификатор : 6
    Формат : UTF-8
    Идентификатор кодека : S_TEXT/UTF8
    Идентификатор кодека/Информация : UTF-8 Plain Text
    Язык : English
    Default : Нет
    Forced : Нет
    Меню
    00: 00: 00.000 : en: Title/Credits/Intro
    00: 05: 58.000 : en: Rio...Solo
    00: 12: 58.000 : en: Settling In
    00: 17: 52.000 : en: Reckless Impulsive
    00: 33: 36.000 : en: The Morning After
    00: 37: 40.000 : en: Babysitting
    00: 48: 01.000 : en: Secret Song
    00: 51: 01.000 : en: Confession
    00: 56: 23.000 : en: Heartline
    01: 00: 36.000 : en: My Rock
    01: 04: 41.000 : en: Dear Dairy
    01: 10: 43.000 : en: It;s Me
    01: 17: 52.000 : en: Sneaking Around
    01: 21: 41.000 : en: Coming Clean
    01: 26: 42.000 : en: Price For Everything
    01: 31: 01.000 : en: Young Twice/Credits

    Скриншоты:

    Размер скачиваемого торрента: 2.28 GB (2450897896 Bytes)

    Во всем виноват Рио/Blame It on Rio (1984) WEB-DLRip-AVC | P2, P, А
    загрузка...
    Рейтинг →
     (голосов: 1, оценка 5/5, голосовать можно 1 раз )

    Другие торренты по теме:

  • Во всем виноват Рио / Blame It on Rio (1984) HDTVRip 720p
  • Во всем виноват Рио / Blame It on Rio HDTV 1080i от Generalfilm скачать через торрент бесплатно
  • Во всем виноват Фрейд / Tutta colpa di Freud (2014) HDRip | L1


    • Комментарии (0):

      Информация

      Информация

        Посетители, находящиеся в группе Гости, не могут оставлять комментарии в данной новости.

        ↓ Меню



        ↓ Опрос

        А Вы добавили сайт в закладки?
        Да
        Не


        Top 10 за месяц (Фильмы)