.
Авторизация | Регистрация




Фокус / Focus (2015) DVD5 скачать торрент бесплатно

Опубликовал: Админ | Дата: 4-09-2015, 05:01 | Просмотров: 243


Узнай в чём фокус

Создали в: 2015
Создали в: США, Аргентина/Warner Bros., RatPac-Dune Entertainment, Zaftig Films, Kramer Sigman Films
Категория жанра: Драма, мелодрама, комедия, криминал
Главный режиссеры: Гленн Фикарра, Джон Рекуа
Продюсеры: Дениз Ди Нови, Чарли Гоголак, Джеффри Харлэкер
Актеры: Уилл Смит, Марго Робби, Адриан Мартинес, Джералд МакРэйни, Родриго Санторо, Б.Д. Вонг, Бреннан Браун, Роберт Тейлор, Дотан Бонен, Грифф Ферст
Описание фильма:
История об опытном мошеннике, который влюбляется в девушку, делающую первые шаги на поприще нелегального отъема средств у граждан. Отношения становятся для них проблемой, когда обнаруживается, что романтика мешает их нечестному бизнесу.
Перевод текста: Дублированный
Субтитры: Английские, русские
Дата мировой премьеры: 25 февраля 2015
Дата российской премьеры: 26 февраля 2015, Каро-Премьер
Дата выхода DVD релиза: 25 июня 2015, CP Дистрибуция
Время просмотра: 01: 40: 26
Качество фильма видео: DVD5
Информация о видео: MPEG-2, 720x576@1024x576 (PAL 16: 9), ~5700 Кбит/сек
Информация о звуке 1: AC3 5.1, 384 Кбит/сек Английский - оригинал
Информация о звуке 2: AC3 5.1, 448 Кбит/сек Русский - дублированный
DVDInfo:
Title: Focus (2015) DVD5 PAL
Size: 4.36 Gb ( 4 572 666, 00 KBytes ) - DVD-5
Enabled regions: 1, 2, 3, 4, 5, 6, 7, 8
VTS_01 :
Play Length: 01: 40: 26+00: 00: 00+00: 00: 04+00: 00: 01
Video: PAL 16: 9 (720x576) VBR, Auto Letterboxed
Audio:
English (Dolby AC3, 6 ch)
Russian (Dolby AC3, 6 ch)
Subtitles:
English
Russian
Russian
* Menus Information *
VIDEO_TS Menu
Video:
PAL 16: 9 (720x576) VBR
Auto PanScan
Language Unit :
Title Menu
VTS_01 Menu
Video:
PAL 16: 9 (720x576) VBR
Auto PanScan
Audio:
Not specified (Dolby AC3, 2 ch)
English Language Unit :
Root Menu
MediaInfo:
Общее
Полное имя : G: ВидеоFocus (2015) DVD5 PALVIDEO_TSVTS_01_3.VOB
Формат : MPEG-PS
Размер файла : 1024 Мбайт
Продолжительность : 21 м.
Режим общего битрейта : Переменный
Общий поток : 6709 Кбит/сек
Видео
Идентификатор : 224 (0xE0)
Формат : MPEG Video
Версия формата : Version 2
Профиль формата : Main@Main
Параметр BVOP формата : Да
Параметр матрицы формата : Выборочная
Параметр GOP формата : Variable
Структура изображения : Frame
Продолжительность : 21 м.
Вид битрейта : Переменный
Битрейт : 5743 Кбит/сек
Максимальный битрейт : 7509 Кбит/сек
Ширина : 720 пикселей
Высота : 576 пикселей
Соотношение сторон : 16: 9
Частота кадров : 25, 000 кадров/сек
Стандарт вещания : PAL
Цветовое пространство : YUV
Субдискретизация насыщенности : 4: 2: 0
Битовая глубина : 8 бит
Тип развёртки : Чересстрочная
Порядок развёртки : Верхнее поле первое
Метод сжатия : С потерями
Бит/(Пиксели*Кадры) : 0.554
Временной код первого кадра : 00: 46: 22: 10
Оригинал временного кода : Group of pictures t_head
GOP, открыто/закрыто : Открыто
GOP, открыто/закрыто на первом кадре : Закрыто
Размер потока : 877 Мбайт (86%)
Аудио #1
Идентификатор : 189 (0xBD)-128 (0x80)
Формат : AC-3
Формат/Информация : Audio Coding 3
Расширение режима : CM (complete main)
Параметр Endianness формата : Big
Режим смешивания : DVD-Video
Продолжительность : 21 м.
Вид битрейта : Постоянный
Битрейт : 384 Кбит/сек
Каналы : 6 каналов
Расположение каналов : Front: L C R, Side: L R, LFE
Частота : 48, 0 КГц
Битовая глубина : 16 бит
Метод сжатия : С потерями
Задержка видео : -352 мс.
Размер потока : 58, 6 Мбайт (6%)
Аудио #2
Идентификатор : 189 (0xBD)-129 (0x81)
Формат : AC-3
Формат/Информация : Audio Coding 3
Расширение режима : CM (complete main)
Параметр Endianness формата : Big
Режим смешивания : DVD-Video
Продолжительность : 21 м.
Вид битрейта : Постоянный
Битрейт : 448 Кбит/сек
Каналы : 6 каналов
Расположение каналов : Front: L C R, Side: L R, LFE
Частота : 48, 0 КГц
Битовая глубина : 16 бит
Метод сжатия : С потерями
Задержка видео : -352 мс.
Размер потока : 68, 4 Мбайт (7%)
Текст #1
Идентификатор : 189 (0xBD)-32 (0x20)
Формат : RLE
Формат/Информация : Run-length encoding
Режим смешивания : DVD-Video
Продолжительность : 21 м.
Задержка видео : 80 мс.
Текст #2
Идентификатор : 189 (0xBD)-33 (0x21)
Формат : RLE
Формат/Информация : Run-length encoding
Режим смешивания : DVD-Video
Продолжительность : 21 м.
Задержка видео : 2 с. 760 мс.
Меню
Доп. информация:
Исходник: Фокус/Focus (2015) DVD9 | Custom
Удалены: доп. материалы, трейлер.
Команды диска переписаны заново, оставлен один VTS.
Видео сжато на 14, 3%.
Меню: статичное, недействующие кнопки затерты и закрыты.
Использовались программы: DVD ReMake Pro + DVD Rebuilder + CCE SP2 7 проходов + Работа с меню (Adobe PhotoShop и MuxMan).
Скриншоты меню:

Скриншоты:

Залил: Саша 1992
Размер скачиваемого торрента: 4.36 GB (4682409984 Bytes)

Фокус/Focus (2015) DVD5
загрузка...
Рейтинг →
 (голосов: 1, оценка 5/5, голосовать можно 1 раз )

Другие торренты по теме:

  • Фокус-покус / Hocus Pocus (1993) BDRip 1080p торрент скачать бесплатно
  • Фокус / Focus (2015) CAMRip от UNIONGANGскачать торрент бесплатно
  • Фокус / Focus (2015) WEBRip | Звук с CAMRip скачать торрент бесплатно
  • Фокус / Focus (2015) HDRip | Лицензия * скачать торрент бесплатно
  • Фокус / Focus (2015) WEB-DLRip | Чистый звук скачать торрент бесплатно
  • Фокус / Focus (2015) WEB-DLRip от Scarabey | iTunes скачать торрент бесплатно
  • Фокус / Focus (2015) HDRip-AVC | D | iTunes скачать торрент бесплатно
  • Фокус / Focus (2015) BDRip 720p от KinoGadget | iPad скачать торрент бесплатно


    • Комментарии (0):

      Информация

      Информация

        Посетители, находящиеся в группе Гости, не могут оставлять комментарии в данной новости.

        ↓ Меню



        ↓ Опрос

        А Вы добавили сайт в закладки?
        Да
        Не


        Top 10 за неделю (Фильмы)