.
Авторизация | Регистрация
» » Наблюдатель / Le guetteur (2012) HDRip | P скачать торрент бесплатно




    Наблюдатель / Le guetteur (2012) HDRip | P скачать торрент бесплатно

    Опубликовал: Админ | Дата: 9-09-2015, 05:02 | Просмотров: 160



    Детально о кино
    Русское название: Наблюдатель
    Русское название в мировом прокате: Le guetteur
    Создали в: 2012
    Категория жанра: Боевик, Криминал
    Главный режиссер: Микеле Плачидо

    Актеры
    Даниель Отой, Матьё Кассовиц, Оливье Гурме, Франсис Рено, Николя Бриансон, Жером Пули, Виоланте Плачидо, Лука Арджентеро, Арли Жовер, Кристиан Эк и др.

    Сюжет фильма

    Комиссар Маттеи уже несколько месяцев преследует банду грабителей банков. Во время очередного ограбления банду вот-вот накроют, но уйти бандитам помогает таинственный снайпер, без промаха ранящий полицейских. После анонимного звонка удаётся арестовать пресловутого снайпера, но тому удаётся бежать, чтобы вычислить предателя. Когда Маттеи узнаёт, что снайпер повинен в смерти его сына во время операции в Афганистане, дело становится личным.

    Снималось в: Франция, Бельгия, Италия
    Киностудия: Canal +, Casa Kafka Pictures, Cin?, Cin?mage 6
    Время просмотра: 01: 28: 35
    Перевод текста: Профессиональный (многоголосный) - Первый канал
    Файл
    Кодек для видео: XviD
    Качество фильма: HDRip
    Информация о видео: XviD, 720x304, 24.000 fps, ~ 1020 Kbit/s
    Информация о звуке: MP3, 48000 Hz, 2 каналов, 128 kbit/s
    Скриншоты



    MediaInfo

    Общее
    Полное имя : D: Nabludatelj.2012.P.HDRip.735mb.avi
    Формат : AVI
    Формат/Информация : Audio Video Interleave
    Размер файла : 735 Мбайт
    Продолжительность : 1 ч. 28 м.
    Общий поток : 1160 Кбит/сек
    Программа кодирования : Lavf54.63.104
    Видео
    Идентификатор : 0
    Формат : xvid
    Идентификатор кодека : xvid
    Продолжительность : 1 ч. 28 м.
    Битрейт : 1020 Кбит/сек
    Ширина : 720 пикселей
    Высота : 304 пикселя
    Соотношение сторон : 2, 35: 1
    Частота кадров : 23, 976 кадра/сек
    Бит/(Пиксели*Кадры) : 0.194
    Размер потока : 646 Мбайт (88%)
    Аудио
    Идентификатор : 1
    Формат : MPEG Audio
    Версия формата : Version 1
    Профиль формата : Layer 3
    Режим : Joint stereo
    Расширение режима : MS Stereo
    Идентификатор кодека : 55
    Идентификатор кодека/Подсказка : MP3
    Продолжительность : 1 ч. 28 м.
    Вид битрейта : Постоянный
    Битрейт : 128 Кбит/сек
    Каналы : 2 канала
    Частота : 48, 0 КГц
    Метод сжатия : С потерями
    Размер потока : 81, 1 Мбайт (11%)
    Выравнивание : Соединение по промежуткам
    Продолжительность промежутка : 24 мс. (0, 58 видеокадр)

    Релиз подготовил: Гена84
    Залил: Гена84
    Размер скачиваемого торрента: 735.41 MB (771130256 Bytes)

    Наблюдатель/Le guetteur (2012) HDRip | P
    загрузка...
    Рейтинг →
     (голосов: 1, оценка 3/5, голосовать можно 1 раз )

    Другие торренты по теме:

  • Наблюдатель / Le guetteur (2012) HDRip | НТВ торрент скачать бесплатно
  • Наблюдатель / Сторож / Le guetteur (2012) BDRip от HQCLUB торрент скачать бесплатно
  • Наблюдатель / Сторож / Le guetteur (2012) BDRip от HQCLUB | AUS Transfer торрент скачать бесплатно
  • Наблюдатель (Сторож) / Le guetteur (Open Matte) / 2012 / ПМ, ПД, СТ / BDRip скачать торрент бесплатно
  • Наблюдатель / Le guetteur (2012) BDRip 1080p | AUS Transfer | P, P2 скачать торрент бесплатно


    • Комментарии (0):

      Информация

      Информация

        Посетители, находящиеся в группе Гости, не могут оставлять комментарии в данной новости.

        ↓ Меню



        ↓ Опрос

        А Вы добавили сайт в закладки?
        Да
        Не


        Top 10 за неделю (Фильмы)