.
Авторизация | Регистрация
Хочешь лучшие торренты? Добавь свой email!
Добавить
» » В лабиринте молчания / Im Labyrinth des Schweigens (2014) WEBRip 1080p | L1 торрент скачать бесплатно




    В лабиринте молчания / Im Labyrinth des Schweigens (2014) WEBRip 1080p | L1 торрент скачать бесплатно

    Опубликовал: Админ | Дата: 9-09-2015, 05:02 | Просмотров: 163



    Детально о кино
    Русское название: В лабиринте молчания
    Русское название в мировом прокате: Im Labyrinth des Schweigens
    Создали в: 2014
    Категория жанра: история
    Главный режиссер: Джулио Риччиарелли

    Актеры
    Александр Фелинг, Андре Зиманский, Фредерике Бехт, Йоханнес Криш, Йохан фон Бюлов, Роберт Хунгер-Бюлер, Ханси Йохман, Лукас Мико, Герт Фосс, Тим Уильямс

    Сюжет фильма

    Фильм посвящен Освенцимским процессам — под таким названием в немецкую историю вошли суды над охранниками, надзирателями и прочим персоналом концлагеря Освенцим (Аушвиц), которые проходили во Франкфурте-на-Майне в 60-е годы. Молодой прокурор Йоханн Радманн обнаруживает сведения, изобличающие преступную деятельность бывшего персонала концлагеря. При поддержке генерального прокурора Фрица Бауэра (реальная фигура) он начинает расследование, в результате которого на скамье подсудимых оказалась целая команда лагерных палачей. Основная тема фильма — конфликт между теми, кто желает забыть прошлое во имя национального примирения в условиях экономического чуда и теми, кто стремится к установлению справедливости.

    Снималось в: Германия/Claussen W?bke Putz Filmproduktion, Naked Eye Filmproduktion
    Время просмотра: 02: 03: 00
    Тип перевода: Любительское (одноголосое) Project Web Money
    Файл
    Тип видео: MKV
    Качество фильма: WEBRip 1080p
    Информация о видео: ~3000 kb/s, 1920x800
    Информация о звуке: AC3, 192 kb/s (2 ch)
    M/I
    General
    Unique ID : 248297174965943156747780642847072900031 (0xBACC4BE351BB261E99371991BD86D3BF)
    Complete name : D: V.labirinte.molchaniya.2014.WEBRIP-1080p.L1.mkv
    Format : Matroska
    Format version : Version 4/Version 2
    File size : 2.74 GiB
    Duration : 2h 3mn
    Overall bit rate : 3 193 Kbps
    Encoded date : UTC 2015-09-08 15: 21: 37
    Writing application : mkvmerge v8.3.0 (;Over the Horizon;) 64bit
    Writing library : libebml v1.3.1 + libmatroska v1.4.2
    DURATION : 02: 03: 00.358000000
    NUMBER_OF_FRAMES : 211897
    NUMBER_OF_BYTES : 177128588
    _STATISTICS_WRITING_APP : mkvmerge v8.3.0 (;Over the Horizon;) 64bit
    _STATISTICS_WRITING_DATE_UT : 2015-09-08 15: 21: 37
    _STATISTICS_TAGS : BPS DURATION NUMBER_OF_FRAMES NUMBER_OF_BYTES
    Video
    ID : 1
    Format : AVC
    Format/Info : Advanced Video Codec
    Format profile : High@L4
    Format settings, CABAC : Yes
    Format settings, ReFrames : 3 frames
    Codec ID : V_MPEG4/ISO/AVC
    Duration : 2h 3mn
    Bit rate : 3 000 Kbps
    Width : 1 920 pixels
    Height : 800 pixels
    Display aspect ratio : 2.40: 1
    Frame rate mode : Constant
    Frame rate : 23.976 fps
    Color space : YUV
    Chroma subsampling : 4: 2: 0
    Bit depth : 8 bits
    Scan type : Progressive
    Bits/(Pixel*Frame) : 0.081
    Stream size : 2.52 GiB (92%)
    Writing library : x264 core 140
    Encoding settings : cabac=1/ref=3/deblock=1: 0: 0/analyse=0x3: 0x113/me=hex/subme=7/psy=1/psy_rd=1.00: 0.00/mixed_ref=1/me_range=16/chroma_me=0/trellis=1/8x8dct=1/cqm=0/deadzone=21, 11/fast_pskip=1/chroma_qp_offset=-2/threads=36/lookahead_threads=6/sliced_threads=0/nr=0/decimate=1/interlaced=0/bluray_compat=0/constrained_intra=0/bframes=3/b_pyramid=1/b_adapt=1/b_bias=0/direct=1/weightb=1/open_gop=0/weightp=2/keyint=250/keyint_min=25/scenecut=40/intra_refresh=0/rc_lookahead=40/rc=2pass/mbtree=1/bitrate=3000/ratetol=1.0/qcomp=0.60/qpmin=0/qpmax=69/qpstep=4/cplxblur=20.0/qblur=0.5/ip_ratio=1.41/aq=1: 1.00
    Language : German
    Default : Yes
    Forced : No
    Audio
    ID : 2
    Format : AC-3
    Format/Info : Audio Coding 3
    Mode extension : CM (complete main)
    Format settings, Endianness : Big
    Codec ID : A_AC3
    Duration : 2h 3mn
    Bit rate mode : Constant
    Bit rate : 192 Kbps
    Channel(s) : 2 channels
    Channel positions : Front: L R
    Sampling rate : 44.1 KHz
    Compression mode : Lossy
    Stream size : 169 MiB (6%)
    Default : Yes
    Forced : No
    Menu
    00: 00: 00.000 : en: 00: 00: 00.000
    00: 09: 05.336 : en: 00: 09: 05.336
    00: 20: 49.331 : en: 00: 20: 49.331
    00: 31: 06.656 : en: 00: 31: 06.656
    00: 40: 05.403 : en: 00: 40: 05.403
    00: 53: 12.564 : en: 00: 53: 12.564
    01: 01: 01.533 : en: 01: 01: 01.533
    01: 09: 37.548 : en: 01: 09: 37.548
    01: 20: 52.848 : en: 01: 20: 52.848
    01: 32: 15.029 : en: 01: 32: 15.029
    01: 46: 28.215 : en: 01: 46: 28.215
    01: 56: 26.646 : en: 01: 56: 26.646
    Скриншоты

    Размер скачиваемого торрента: 2.74 GB (2945746651 Bytes)

    В лабиринте молчания/Im Labyrinth des Schweigens (2014) WEBRip 1080p | L1
    загрузка...
    Рейтинг →
     (голосов: 1, оценка 5/5, голосовать можно 1 раз )

    Другие торренты по теме:

  • В лабиринте молчания / Im Labyrinth des Schweigens (2014) HDRip | L1
  • В лабиринте молчания / Im Labyrinth des Schweigens / 2014 / ЛО / BDRip (720p)
  • В лабиринте молчания / Im Labyrinth des Schweigens / 2014 / ЛО / HDRip


    • Комментарии (0):

      Информация

      Информация

        Посетители, находящиеся в группе Гости, не могут оставлять комментарии в данной новости.

        ↓ Меню



        ↓ Опрос

        А Вы добавили сайт в закладки?
        Да
        Не


        Top 10 за месяц (Фильмы)