.
Авторизация | Регистрация
» » Страшные сказки / Il racconto dei racconti (2015) BDRip 720p | L, L1 скачать торрент бесплатно




    Страшные сказки / Il racconto dei racconti (2015) BDRip 720p | L, L1 скачать торрент бесплатно

    Опубликовал: Админ | Дата: 13-09-2015, 05:02 | Просмотров: 140




    Детально о кино
    Русское название: Страшные сказки
    Русское название в мировом прокате: Il racconto dei racconti
    Создали в: 2015
    Категория жанра: Фэнтези, мелодрама
    Главный режиссер: Маттео Гарроне

    Актеры
    Сальма Хайек, Венсан Кассель, Тоби Джонс, Джон Си. Райли, Альба Рорвахер


    Сюжет фильма
    Маги и волшебники, короли и королевы, красавицы-принцессы и страшилы-великаны населяют эту потрясающую готическую фантазию. Сластолюбивый Король Одинокого Утеса берет в жены прелестную деву, а она превращается в уродливую старуху. Отважный Король Долины Туманов отправляется на бой с драконом, поскольку волшебник предсказал, что королева понесет ребенка, если съест сердце дракона. Ну, а Король Диких Гор с любовью выращивает гигантскую блоху, а родную дочь без тени сожаления отдает в жены горному орку. За стенами величественных замков строятся коварные козни, даются безрассудные обеты, там страстно любят и жестоко убивают…



    Снималось в: Италия, Франция, Великобритания/Archimede, Le Pacte, Rai Cinema
    Время просмотра: 02: 13: 46
    Перевод текста: Любительский (многоголосый, закадровый)- Paradox Omskbirdrecords
    Любительский (одноголосый, закадровый)- PashaUp

    Файл
    Качество фильма: BDRip 720p
    Тип видео: MKV
    Информация о видео: MPEG4/AVC, 7950 Кбит/сек, 1280х544 (2.35: 1), 24.000 кадра/сек
    Информация о звуке 1: AC3, 6 каналов, 448 Кбит/сек | Русский - MVO
    Информация о звуке 2: AC3, 2 канала, 192 Кбит/сек | Русский - PashaUp
    Информация о звуке 3: AC3, 6 каналов, 640 Кбит/сек | Английский
    Субтитры: Русские, английские
    Навигация по главам: Есть

    MediaInfo:
    Общее
    Уникальный идентификатор : 221675536020843886101177474867514046635 (0xA6C527C02C0E658FA5525A0C75EFF8AB)
    Полное имя : Tale of Tales. (2015) BDRip 720p.mkv
    Формат : Matroska
    Версия формата : Version 2
    Размер файла : 8, 63 Гбайт
    Продолжительность : 2 ч. 13 м.
    Общий поток : 9233 Кбит/сек
    Название фильма : Tale of Tales. 2015
    Дата кодирования : UTC 2015-09-12 12: 10: 56
    Программа кодирования : mkvmerge v5.8.0 (;No Sleep/Pillow;) built on Sep 2 2012 15: 37: 04
    Библиотека кодирования : libebml v1.2.3 + libmatroska v1.3.0

    Видео
    Идентификатор : 1
    Формат : AVC
    Формат/Информация : Advanced Video Codec
    Профиль формата : High@L4.1
    Параметр CABAC формата : Да
    Параметр ReFrames формата : 10 кадров
    Идентификатор кодека : V_MPEG4/ISO/AVC
    Продолжительность : 2 ч. 13 м.
    Битрейт : 7950 Кбит/сек
    Ширина : 1280 пикселей
    Высота : 544 пикселя
    Соотношение сторон : 2, 35: 1
    Режим частоты кадров : Постоянный
    Частота кадров : 24, 000 кадра/сек
    Цветовое пространство : YUV
    Субдискретизация насыщенности : 4: 2: 0
    Битовая глубина : 8 бит
    Тип развёртки : Прогрессивная
    Бит/(Пиксели*Кадры) : 0.476
    Размер потока : 7, 26 Гбайт (84%)
    Заголовок : iFT
    Библиотека кодирования : x264 core 142 r2431 ac76440
    Настройки программы : cabac=1/ref=10/deblock=1: -1: -1/analyse=0x3: 0x133/me=umh/subme=10/psy=1/psy_rd=1.00: 1.00/mixed_ref=1/me_range=48/chroma_me=1/trellis=2/8x8dct=1/cqm=0/deadzone=21, 11/fast_pskip=1/chroma_qp_offset=-4/threads=16/lookahead_threads=4/sliced_threads=0/nr=0/decimate=1/interlaced=0/bluray_compat=0/constrained_intra=0/bframes=10/b_pyramid=2/b_adapt=2/b_bias=0/direct=3/weightb=0/open_gop=0/weightp=2/keyint=240/keyint_min=24/scenecut=40/intra_refresh=0/rc_lookahead=60/rc=2pass/mbtree=1/bitrate=7950/ratetol=1.0/qcomp=0.60/qpmin=0/qpmax=69/qpstep=4/cplxblur=20.0/qblur=0.5/vbv_maxrate=62500/vbv_bufsize=78125/nal_hrd=none/filler=0/ip_ratio=1.40/aq=1: 1.00
    Язык : English
    Default : Да
    Forced : Нет
    Коэффициенты матрицы : BT.709

    Аудио #1
    Идентификатор : 2
    Формат : AC-3
    Формат/Информация : Audio Coding 3
    Расширение режима : CM (complete main)
    Параметр Endianness формата : Big
    Идентификатор кодека : A_AC3
    Продолжительность : 2 ч. 13 м.
    Вид битрейта : Постоянный
    Битрейт : 448 Кбит/сек
    Каналы : 6 каналов
    Расположение каналов : Front: L C R, Side: L R, LFE
    Частота : 48, 0 КГц
    Битовая глубина : 16 бит
    Метод сжатия : С потерями
    Размер потока : 429 Мбайт (5%)
    Заголовок : MVO | Paradox Omskbirdrecords
    Язык : Russian
    Default : Да
    Forced : Нет

    Аудио #2
    Идентификатор : 3
    Формат : AC-3
    Формат/Информация : Audio Coding 3
    Расширение режима : CM (complete main)
    Параметр Endianness формата : Big
    Идентификатор кодека : A_AC3
    Продолжительность : 2 ч. 13 м.
    Вид битрейта : Постоянный
    Битрейт : 192 Кбит/сек
    Каналы : 2 канала
    Расположение каналов : Front: L R
    Частота : 48, 0 КГц
    Битовая глубина : 16 бит
    Метод сжатия : С потерями
    Размер потока : 184 Мбайт (2%)
    Заголовок : L1 | PashaUp
    Язык : Russian
    Default : Нет
    Forced : Нет

    Аудио #3
    Идентификатор : 4
    Формат : AC-3
    Формат/Информация : Audio Coding 3
    Расширение режима : CM (complete main)
    Параметр Endianness формата : Big
    Идентификатор кодека : A_AC3
    Продолжительность : 2 ч. 13 м.
    Вид битрейта : Постоянный
    Битрейт : 640 Кбит/сек
    Каналы : 6 каналов
    Расположение каналов : Front: L C R, Side: L R, LFE
    Частота : 48, 0 КГц
    Битовая глубина : 16 бит
    Метод сжатия : С потерями
    Размер потока : 612 Мбайт (7%)
    Заголовок : Original
    Язык : English
    Default : Нет
    Forced : Нет

    Текст #1
    Идентификатор : 5
    Формат : UTF-8
    Идентификатор кодека : S_TEXT/UTF8
    Идентификатор кодека/Информация : UTF-8 Plain Text
    Заголовок : Full
    Язык : Russian
    Default : Нет
    Forced : Нет

    Текст #2
    Идентификатор : 6
    Формат : UTF-8
    Идентификатор кодека : S_TEXT/UTF8
    Идентификатор кодека/Информация : UTF-8 Plain Text
    Заголовок : Full
    Язык : English
    Default : Нет
    Forced : Нет

    Меню
    00: 00: 00.000 : en: Chapter 01
    00: 08: 36.416 : en: Chapter 02
    00: 19: 37.750 : en: Chapter 03
    00: 26: 20.250 : en: Chapter 04
    00: 36: 04.916 : en: Chapter 05
    00: 44: 24.083 : en: Chapter 06
    00: 56: 14.333 : en: Chapter 07
    01: 09: 24.583 : en: Chapter 08
    01: 24: 24.625 : en: Chapter 09
    01: 33: 59.208 : en: Chapter 10
    01: 47: 49.166 : en: Chapter 11
    02: 01: 58.916 : en: Chapter 12



    Релиз подготовил:
    Размер скачиваемого торрента: 8.63 GB (9262916600 Bytes)

    Страшные сказки/Il racconto dei racconti (2015) BDRip 720p | L, L1
    загрузка...
    Рейтинг →
     (голосов: 1, оценка 5/5, голосовать можно 1 раз )

    Другие торренты по теме:

  • Сказка сказок (Страшные сказки) / Il racconto dei racconti / 2015 / ЛО / BDRip скачать торрент бесплатно
  • Сказка сказок (Страшные сказки) / Il racconto dei racconti / 2015 / ПМ / HDRip скачать торрент бесплатно
  • Сказка сказок (Страшные сказки) / Il racconto dei racconti / 2015 / ПМ, СТ / BDRip (720p) скачать торрент бесплатно
  • Страшные сказки: Каменная Королева / Grim Tales 4: The Stone Queen CE (2013) PC торрент скачать бесплатно
  • Страшные Сказки: Кровавая Мэри / Grim Tales 5: Bloody Mary CE (2013) РС торрент скачать бесплатно
  • Ужасы по дешевке / Страшные сказки / Penny Dreadful (2014) HDTV 720р | Kerob торрент скачать бесплатно
  • Ужасы по дешевке / Страшные сказки / Penny Dreadful (2014) HDTVRip | Kerob торрент скачать бесплатно
  • Ужасы по дешевке / Страшные сказки / Penny Dreadful (2014) HDTVRip 720p | NewStudio скачать через торрент бесплатно


    • Комментарии (0):

      Информация

      Информация

        Посетители, находящиеся в группе Гости, не могут оставлять комментарии в данной новости.

        ↓ Меню



        ↓ Опрос

        А Вы добавили сайт в закладки?
        Да
        Не


        Top 10 за неделю (Фильмы)