.
Авторизация | Регистрация
Хочешь лучшие торренты? Добавь свой email!
Добавить
» » Роковое влечение / Fatal Attraction (1987) BDRip 720p by msltel торрент скачать бесплатно




    Роковое влечение / Fatal Attraction (1987) BDRip 720p by msltel торрент скачать бесплатно

    Опубликовал: Админ | Дата: 17-09-2015, 05:17 | Просмотров: 202



    Русское название: Роковое влечение
    Русское название в мировом прокате: Fatal Attraction
    Создали в: 1987
    Снималось в: США
    Категория жанра: ужасы, триллер, драма, мелодрама
    Время просмотра: 01: 59: 28
    Перевод текста: профессиональный многоголосый, профессиональный двухголосый, авторский
    Главный режиссёр: Эдриан Лайн

    Актеры
    Майкл Дуглас, Гленн Клоуз, Энн Арчер, Том Браннан, Мег Манди, Эллен Хэмилтон Лэтцен, Стюарт Пэнкин, Эллен Фоли, Фред Гуинн, Лоис Смит, Майк Нассбаум, Сэм Коппола, Джейн Краковски, Мэри Джой, Марк МакКью, Джеймс Экхаус, Кэрол Шнайдер, Анна Левайн-Томпсон, Джонатан Брэндис, Джо Чэпман
    Описание: Беззаботной и счастливой была жизнь адвоката Дэна Галлагера с молодой женой Бэт и пятилетней дочерью Эллен до того рокового дня, когда Бэт и Эллен отправились за город к родителям, а у Дэна появилось два дня свободы от семейных уз. Почувствовав мимолётное влечение к Алекс Форрест, новой сотруднице обслуживаемой им фирмы, он был польщён взаимностью дамы и провёл с ней несколько часов любви сначала в своём доме, а затем уже на квартире любовницы. К исходу второго дня Дэн хотел благополучно вернуться к своему семейному очагу, но оказалось, что теперь он зажат мёртвой хваткой настоящей любовной маньячки. Она начала с того, что перерезала себе вены, и охваченному паникой Дэну пришлось бинтовать ей руки и утешать. Когда Дэну всё же удалось вырваться от Алекс к себе домой, его жизнь превратилась в настоящий кошмар...

    Качество фильма: BDRip 720p Сравнение с исходником
    Тип видео: MKV
    Информация о видео: MPEG-4 AVC, 4910 Kбит/с, 1280x720, 23, 976 кадра/с
    Информация о звуке 1: русский, AC3, 448 kbps, 6 ch, 48 kHz профессиональный многоголосый
    Информация о звуке 2: русский, AC3, 192 kbps, 2 ch, 48 kHz профессиональный двухголосый, Universal Picture Rus
    Информация о звуке 3: русский, AC3, 448 kbps, 6 ch, 48 kHz авторский, Юрий Живов
    Внешние файлы
    Информация о звуке: русский, AC3, 448 kbps, 6 ch, 48 kHz профессиональный многоголосый, LDV
    Информация о звуке: русский, AC3, 192 kbps, 2 ch, 48 kHz профессиональный многоголосый, ТК Россия
    Информация о звуке: русский, AC3, 192 kbps, 2 ch, 48 kHz профессиональный двухголосый, Премьер Видео фильм
    Информация о звуке: русский, AC3, 192 kbps, 2 ch, 48 kHz авторский, Леонид Володарский
    Информация о звуке: русский, AC3, 192 kbps, 2 ch, 48 kHz авторский, Андрей Гаврилов
    Информация о звуке: русский, AC3, 192 kbps, 2 ch, 48 kHz авторский, Василий Горчаков
    Информация о звуке: английский, AC3, 448 kbps, 6 ch, 48 kHz оригинал
    Субтитры: английские
    Награды
    Британская академия, 1989 год
    Победитель (1):
    Лучший монтаж
    Номинации (2):
    Лучшая мужская роль (Майкл Дуглас)
    Лучшая женская роль второго плана (Энн Арчер)
    Оскар, 1988 год
    Номинации (6):
    Лучший фильм
    Лучшая женская роль (Гленн Клоуз)
    Лучшая женская роль второго плана (Энн Арчер)
    Лучший режиссер (Эдриан Лайн)
    Лучший адаптированный сценарий
    Лучший монтаж
    Золотой глобус, 1988 год
    Номинации (4):
    Лучший фильм (драма)
    Лучшая женская роль (драма) (Гленн Клоуз)
    Лучшая женская роль второго плана (Энн Арчер)
    Лучший режиссер (Эдриан Лайн)
    Сатурн, 1988 год
    Номинации (1):
    Лучший сценарий

    Инфо-файл
    Общее
    Полное имя : D: VideoРоковое влечение.1987.BDRip.720pРоковое влечение.1987.AVO.rus.А.Гаврилов.ac3
    Формат : AC-3
    Формат/Информация : Audio Coding 3
    Размер файла : 164 Мбайт
    Продолжительность : 1 ч. 59 м.
    Режим общего битрейта : Постоянный
    Общий поток : 192 Кбит/сек
    Аудио
    Формат : AC-3
    Формат/Информация : Audio Coding 3
    Расширение режима : CM (complete main)
    Параметр Endianness формата : Big
    Продолжительность : 1 ч. 59 м.
    Вид битрейта : Постоянный
    Битрейт : 192 Кбит/сек
    Каналы : 2 канала
    Расположение каналов : Front: L R
    Частота : 48, 0 КГц
    Метод сжатия : С потерями
    Размер потока : 164 Мбайт (100%)
    Общее
    Полное имя : D: VideoРоковое влечение.1987.BDRip.720pРоковое влечение.1987.AVO.rus.В.Горчаков.ac3
    Формат : AC-3
    Формат/Информация : Audio Coding 3
    Размер файла : 164 Мбайт
    Продолжительность : 1 ч. 59 м.
    Режим общего битрейта : Постоянный
    Общий поток : 192 Кбит/сек
    Аудио
    Формат : AC-3
    Формат/Информация : Audio Coding 3
    Расширение режима : CM (complete main)
    Параметр Endianness формата : Big
    Продолжительность : 1 ч. 59 м.
    Вид битрейта : Постоянный
    Битрейт : 192 Кбит/сек
    Каналы : 2 канала
    Расположение каналов : Front: L R
    Частота : 48, 0 КГц
    Метод сжатия : С потерями
    Размер потока : 164 Мбайт (100%)
    Общее
    Полное имя : D: VideoРоковое влечение.1987.BDRip.720pРоковое влечение.1987.AVO.rus.Л.Володарский.ac3
    Формат : AC-3
    Формат/Информация : Audio Coding 3
    Размер файла : 164 Мбайт
    Продолжительность : 1 ч. 59 м.
    Режим общего битрейта : Постоянный
    Общий поток : 192 Кбит/сек
    Аудио
    Формат : AC-3
    Формат/Информация : Audio Coding 3
    Расширение режима : CM (complete main)
    Параметр Endianness формата : Big
    Продолжительность : 1 ч. 59 м.
    Вид битрейта : Постоянный
    Битрейт : 192 Кбит/сек
    Каналы : 2 канала
    Расположение каналов : Front: L R
    Частота : 48, 0 КГц
    Метод сжатия : С потерями
    Размер потока : 164 Мбайт (100%)
    Общее
    Уникальный идентификатор : 222618532908097662446176888551369910602 (0xA77AC51638C092E591B4B8C07834A94A)
    Полное имя : D: VideoРоковое влечение.1987.BDRip.720pРоковое влечение.1987.BDRip.720p.mkv
    Формат : Matroska
    Версия формата : Version 4/Version 2
    Размер файла : 5, 16 Гбайт
    Продолжительность : 1 ч. 59 м.
    Общий поток : 6185 Кбит/сек
    Название фильма : BDRip -- STarankov
    Дата кодирования : UTC 2015-09-16 01: 34: 59
    Программа кодирования : mkvmerge v8.2.0 (;World of Adventure;) 64bit
    Библиотека кодирования : libebml v1.3.1 + libmatroska v1.4.2
    DURATION : 01: 59: 28.448000000
    NUMBER_OF_FRAMES : 224014
    NUMBER_OF_BYTES : 401433088
    _STATISTICS_WRITING_APP : mkvmerge v8.2.0 (;World of Adventure;) 64bit
    _STATISTICS_WRITING_DATE_UTC : 2015-09-16 01: 34: 59
    _STATISTICS_TAGS : BPS DURATION NUMBER_OF_FRAMES NUMBER_OF_BYTES
    Видео
    Идентификатор : 1
    Формат : AVC
    Формат/Информация : Advanced Video Codec
    Профиль формата : High@L4.1
    Параметр CABAC формата : Да
    Параметр ReFrames формата : 9 кадров
    Идентификатор кодека : V_MPEG4/ISO/AVC
    Продолжительность : 1 ч. 59 м.
    Битрейт : 4910 Кбит/сек
    Ширина : 1280 пикселей
    Высота : 720 пикселей
    Соотношение сторон : 16: 9
    Режим частоты кадров : Постоянный
    Частота кадров : 23, 976 кадра/сек
    Цветовое пространство : YUV
    Субдискретизация насыщенности : 4: 2: 0
    Битовая глубина : 8 бит
    Тип развёртки : Прогрессивная
    Бит/(Пиксели*Кадры) : 0.222
    Размер потока : 4, 10 Гбайт (79%)
    Библиотека кодирования : x264 core 146 r2538 121396c
    Залил: msltel
    Размер скачиваемого торрента: 6.71 GB (7205100935 Bytes)


    Роковое влечение/Fatal Attraction (1987) BDRip 720p by msltel
    загрузка...
    Рейтинг →
     (голосов: 1, оценка 5/5, голосовать можно 1 раз )

    Другие торренты по теме:

  • Роковое влечение / Fatal Attraction (1987) HDRip от Scarabey | Р скачать через торрент бесплатно
  • Роковое влечение / Fatal Attraction (1987) BDRip-AVC от 0ptimus | P, P2, A скачать через торрент бесплатно
  • Роковое влечение / perdument (2016) WEB-DLRip от Portablius | P
  • Роковое влечение / perdument (2016) WEB-DLRip-AVC | Р | iTunes
  • Роковое влечение / perdument (2016) WEB-DLRip от Scarabey | iTunes


    • Комментарии (0):

      Информация

      Информация

        Посетители, находящиеся в группе Гости, не могут оставлять комментарии в данной новости.

        ↓ Меню



        ↓ Опрос

        А Вы добавили сайт в закладки?
        Да
        Не


        Top 10 за месяц (Фильмы)