.
Авторизация | Регистрация
Хочешь лучшие торренты? Добавь свой email!
Добавить




Чужая милая (2015) SATRip торрент скачать бесплатно

Опубликовал: Админ | Дата: 18-09-2015, 05:01 | Просмотров: 209



Детально о кино
Русское название: Чужая милая
Создали в: 2015
Категория жанра: Мелодрамма
Главный режиссер: Дмитрий Фикс

Актеры
Анастасия Заворотнюк, Александр Бухаров, Анна Уколова, Олеся Железняк, Олег Акулич, Егор Клеймёнов, Сергей Зарков

Сюжет фильма

Наталья работает поваром в школьной столовой. Работа ей нравится, а главное - за безобразником сыном можно присматривать. Но Наталью обвиняют в воровстве, которого она не совершала, и увольняют с работы. Чтобы как-то прожить, она по совету подруги решает сдавать одну комнату...
Снималось в: Россия
Время просмотра: ~ 00: 42: 00
Перевод текста: Не требуется
Файл
Кодек для видео: XviD
Качество фильма: SATRip
Информация о видео: 720x400 (1.80: 1), 25 fps, XviD build 50 ~1800 kbps avg, 0.25 bit/pixel
Информация о звуке: 48 kHz, MPEG Layer 3, 2 ch, ~128.00 kbps avg
Скриншоты


MediaInfo

Общее
Полное имя : D: ФильмыChuzhaja.milaja.04.SATRip.avi
Формат : AVI
Формат/Информация : Audio Video Interleave
Размер файла : 674 Мбайт
Продолжительность : 47 м.
Общий поток : 2002 Кбит/сек
Программа кодирования : VirtualDubMod 1.5.10.3 | www.virtualdub-fr.org || (build 2550/release)
Библиотека кодирования : VirtualDubMod build 2550/release
Видео
Идентификатор : 0
Формат : MPEG-4 Visual
Профиль формата : Advanced Simple@L5
Параметр BVOP формата : 2
Параметр QPel формата : Нет
Параметр GMC формата : Без точки перехода
Параметр матрицы формата : Default (H.263)
Идентификатор кодека : XVID
Идентификатор кодека/Подсказка : XviD
Продолжительность : 47 м.
Битрейт : 1800 Кбит/сек
Ширина : 720 пикселей
Высота : 400 пикселей
Соотношение сторон : 16: 9
Частота кадров : 25, 000 кадров/сек
Цветовое пространство : YUV
Субдискретизация насыщенности : 4: 2: 0
Битовая глубина : 8 бит
Тип развёртки : Прогрессивная
Метод сжатия : С потерями
Бит/(Пиксели*Кадры) : 0.250
Размер потока : 606 Мбайт (90%)
Библиотека кодирования : XviD 1.2.1 (UTC 2008-12-04)
Аудио
Идентификатор : 1
Формат : AC-3
Формат/Информация : Audio Coding 3
Расширение режима : CM (complete main)
Параметр Endianness формата : Big
Идентификатор кодека : 2000
Продолжительность : 47 м.
Вид битрейта : Постоянный
Битрейт : 192 Кбит/сек
Каналы : 2 канала
Расположение каналов : Front: L R
Частота : 48, 0 КГц
Метод сжатия : С потерями
Размер потока : 64, 6 Мбайт (10%)
Выравнивание : Разделение по промежуткам
Продолжительность промежутка : 40 мс. (1, 00 видеокадр)
Время предзагрузки промежутка : 500 мс.

Релиз подготовил:
Залил: Гена84
Размер скачиваемого торрента: 673.61 MB (706326528 Bytes)

Чужая милая (2015) SATRip
загрузка...
Рейтинг →
 (голосов: 1, оценка 5/5, голосовать можно 1 раз )

Другие торренты по теме:

  • Чужая нация / Alien Nation (1988) HDTVRip 720p | Р, А
  • Сэм Хайес - Моя чужая дочь (2011) MP3
  • Чужая жена / Another Mans Wife (2011) HDTVRip | РенТВ
  • Чужая женщина (2013) SATRip скачать через торрент бесплатно
  • Чужая женщина (2013) SATRip от Files-x
  • Чужая жизнь (2014) SATRip
  • Чужая жизнь (2014) HDTV 1080p от MediaClub скачать через торрент бесплатно
  • Чужая жизнь (2014) HDTVRip 720p от MediaClub скачать через торрент бесплатно


    • Комментарии (0):

      Информация

      Информация

        Посетители, находящиеся в группе Гости, не могут оставлять комментарии в данной новости.

        ↓ Меню



        ↓ Опрос

        А Вы добавили сайт в закладки?
        Да
        Не


        Top 10 за месяц (Фильмы)