.
Авторизация | Регистрация




Холодное блюдо (2015) SATRip скачать торрент бесплатно

Опубликовал: Админ | Дата: 20-09-2015, 05:01 | Просмотров: 224



Детально о кино
Русское название: Холодное блюдо
Создали в: 2015
Категория жанра: Мелодрама
Главный режиссер: Глеб Якубовский

Актеры
Евгения Нохрина, Алексей Демидов, Павел Яскевич

Сюжет фильма

Когда жених Жени Олег погибает в автокатастрофе по вине пьяного водителя, то она жаждет только одного: чтобы Костю Стрельцова, совершившего наезд, посадили надолго. Но этого не случается, так как шалопай Костя - сын местного олигарха, и отец неоднократно спасал его от ответственности. Тогда Женя решает, что свершит правосудие сама и добьется того, чтобы Костя оказался за решеткой...
Снималось в: Россия
Время просмотра: ~ 00: 45: 00
Перевод текста: Не требуется
Файл
Кодек для видео: XviD
Качество фильма: SATRip
Информация о видео: 720x400 (1.80: 1), 25 fps, XviD build 50 ~1800 kbps avg, 0.25 bit/pixel
Информация о звуке: 48 kHz, MPEG Layer 3, 2 ch, ~128.00 kbps avg
Скриншоты

MediaInfo

Общее
Полное имя : D: ФильмыHolodnoe.bljudo.01.SATRip.avi
Формат : AVI
Формат/Информация : Audio Video Interleave
Размер файла : 625 Мбайт
Продолжительность : 45 м.
Общий поток : 1938 Кбит/сек
Программа кодирования : VirtualDubMod 1.5.10.3 | www.virtualdub-fr.org || (build 2550/release)
Библиотека кодирования : VirtualDubMod build 2550/release
Видео
Идентификатор : 0
Формат : MPEG-4 Visual
Профиль формата : Advanced Simple@L5
Параметр BVOP формата : 2
Параметр QPel формата : Нет
Параметр GMC формата : Без точки перехода
Параметр матрицы формата : Default (MPEG)
Идентификатор кодека : XVID
Идентификатор кодека/Подсказка : XviD
Продолжительность : 45 м.
Битрейт : 1800 Кбит/сек
Ширина : 720 пикселей
Высота : 400 пикселей
Соотношение сторон : 16: 9
Частота кадров : 25, 000 кадров/сек
Цветовое пространство : YUV
Субдискретизация насыщенности : 4: 2: 0
Битовая глубина : 8 бит
Тип развёртки : Прогрессивная
Метод сжатия : С потерями
Бит/(Пиксели*Кадры) : 0.250
Размер потока : 580 Мбайт (93%)
Библиотека кодирования : XviD 1.2.1 (UTC 2008-12-04)
Аудио
Идентификатор : 1
Формат : MPEG Audio
Версия формата : Version 1
Профиль формата : Layer 3
Режим : Joint stereo
Расширение режима : MS Stereo
Идентификатор кодека : 55
Идентификатор кодека/Подсказка : MP3
Продолжительность : 45 м.
Вид битрейта : Постоянный
Битрейт : 128 Кбит/сек
Каналы : 2 канала
Частота : 48, 0 КГц
Метод сжатия : С потерями
Размер потока : 41, 3 Мбайт (7%)
Выравнивание : Соединение по промежуткам
Продолжительность промежутка : 40 мс. (1, 00 видеокадр)
Время предзагрузки промежутка : 504 мс.
Библиотека кодирования : LAME3.99r
Залил: Гена84
Размер скачиваемого торрента: 624.89 MB (655247360 Bytes)


Холодное блюдо (2015) SATRip
загрузка...
Рейтинг →
 (голосов: 1, оценка 3/5, голосовать можно 1 раз )

Другие торренты по теме:

  • Холодное блюдо (2013) SATRip от Files-x Generalfilm скачать торрент бесплатно
  • Холодное блюдо (2015) HDTVRip 720p от MediaClub скачать торрент бесплатно


    • Комментарии (0):

      Информация

      Информация

        Посетители, находящиеся в группе Гости, не могут оставлять комментарии в данной новости.

        ↓ Меню



        ↓ Опрос

        А Вы добавили сайт в закладки?
        Да
        Не


        Top 10 за неделю (Фильмы)