.
Авторизация | Регистрация
Хочешь лучшие торренты? Добавь свой email!
Добавить
» » Жуковский (1950) SATRip от New-Team торрент скачать бесплатно




    Жуковский (1950) SATRip от New-Team торрент скачать бесплатно

    Опубликовал: Админ | Дата: 20-09-2015, 05:01 | Просмотров: 176



    Снималось в: СССР
    Создали в: Мосфильм
    Категория жанра: драма, биография
    Создали в: 1950
    Время просмотра: 01: 23: 39
    Перевод текста: Не требуется
    Субтитры подготовлены: нет
    Оригинальная аудиодорожка: русский
    Главный режиссер: Всеволод Пудовкин, Дмитрий Васильев

    Актеры

    Юрий Юровский, Илья Судаков, Владимир Белокуров, Владимир Дружников, Софья Гиацинтова, Галина Фролова, Олег (Осип) Фрелих, Александр Хохлов, Владимир Грибков, Борис Битюков, Анатолий Чемодуров, Андрей Пунтус, Г. Смирнов, Георгий Юматов, Михаил Названов, Всеволод Аксёнов...
    Полный список актёров
    Описание:
    По материалам Н.Е.Жуковского.
    Посвящен выдающемуся русскому ученому-авиатору Н.Е.Жуковскому (1847—1921), основоположнику современной аэродинамики, член-корреспонденту Петербургской Академии наук, с 1918 — организатору и первому руководителю ЦАГИ (город Жуковский).



    Источник: DVB
    Качество фильма видео: SATRip
    Тип видео видео: AVI
    Информация о видео: 672x512 (4: 3), 25 fps, XviD ~ 1664 kbps avg, 0.193 bit/pixel
    Информация о звуке: 48 kHz, Dolby Digital AC3 2.0, 192 kbps
    Раздача от:
    MediaInfo

    Общее
    Полное имя : Zhukovskiy.1950.SATRip_New-team_by_AVP_Studio.avi
    Формат : AVI
    Формат/Информация : Audio Video Interleave
    Размер файла : 1, 09 Гбайт
    Продолжительность : 1 ч. 23 м.
    Общий поток : 1866 Кбит/сек
    Программа кодирования : VirtualDubMod 1.5.10.3 | www.virtualdub-fr.org || (build 2550/release)
    Библиотека кодирования : VirtualDubMod build 2550/release
    Видео
    Идентификатор : 0
    Формат : MPEG-4 Visual
    Профиль формата : Advanced Simple@L5
    Параметр BVOP формата : 1
    Параметр QPel формата : Нет
    Параметр GMC формата : Без точки перехода
    Параметр матрицы формата : Выборочная
    Идентификатор кодека : XVID
    Идентификатор кодека/Подсказка : XviD
    Продолжительность : 1 ч. 23 м.
    Битрейт : 1664 Кбит/сек
    Ширина : 672 пикселя
    Высота : 512 пикселей
    Соотношение сторон : 4: 3
    Частота кадров : 25, 000 кадров/сек
    Цветовое пространство : YUV
    Субдискретизация насыщенности : 4: 2: 0
    Битовая глубина : 8 бит
    Тип развёртки : Прогрессивная
    Метод сжатия : С потерями
    Бит/(Пиксели*Кадры) : 0.193
    Размер потока : 996 Мбайт (89%)
    Библиотека кодирования : XviD 73
    Аудио
    Идентификатор : 1
    Формат : MPEG Audio
    Версия формата : Version 1
    Профиль формата : Layer 2
    Идентификатор кодека : 50
    Продолжительность : 1 ч. 23 м.
    Вид битрейта : Постоянный
    Битрейт : 192 Кбит/сек
    Каналы : 2 канала
    Частота : 48, 0 КГц
    Метод сжатия : С потерями
    Размер потока : 115 Мбайт (10%)
    Выравнивание : Соединение по промежуткам
    Продолжительность промежутка : 40 мс. (1, 00 видеокадр)
    Время предзагрузки промежутка : 504 мс

    Скриншоты



    Залил: AVPStudio
    Размер скачиваемого торрента: 1.09 GB (1170591744 Bytes)

    Жуковский (1950) SATRip от New-Team
    загрузка...
    Рейтинг →
     (голосов: 1, оценка 3/5, голосовать можно 1 раз )

    Другие торренты по теме:



      Комментарии (0):

      Информация

      Информация

        Посетители, находящиеся в группе Гости, не могут оставлять комментарии в данной новости.

        ↓ Меню



        ↓ Опрос

        А Вы добавили сайт в закладки?
        Да
        Не


        Top 10 за месяц (Фильмы)