.
Авторизация | Регистрация
Хочешь лучшие торренты? Добавь свой email!
Добавить
» » Щедрое лето (1950) DVDRip от New-Team торрент скачать бесплатно




    Щедрое лето (1950) DVDRip от New-Team торрент скачать бесплатно

    Опубликовал: Админ | Дата: 21-09-2015, 05:01 | Просмотров: 221



    Снималось в: СССР
    Создали в: Киевская киностудия
    Категория жанра: комедия
    Создали в: 1950
    Время просмотра: 01: 21: 18
    Перевод текста: Не требуется
    Субтитры подготовлены: нет
    Оригинальная аудиодорожка: русский
    Главный режиссер: Борис Барнет

    Актеры

    Николай Крючков, Нина Архипова, Михаил Кузнецов, Марианна Стриженова, Виктор Добровольский, Константин Сорокин, Муза Крепкогорская, Евгений Максимов, Антон Дунайский, Михаил Высоцкий, Алла Казанская, Виктория Германова, Георгий Гумилевский, Татьяна Барышева, Зоя Толбузина...
    Полный список актёров
    Описание:
    После войны Петр Середа возвращается в родной колхоз, где председатель - его друг и однополчанин Назар, - и становится главным бухгалтером хозяйства. В то время, как полеводческие бригады добиваются успеха и получают высокую оценку своих работ от правительства, Петр без устали доказывает размякшему от славы Назару, что животноводство под ударом, а финансовые дела бесконтрольно запущены. Председатель осознает свои промахи и берет себя в руки.



    Источник: DVD5 R5
    Качество фильма видео: DVDRip
    Тип видео видео: AVI
    Информация о видео: 640x480 (4: 3), 25 fps, XviD ~ 1144 kbps avg, 0.149 bit/pixel
    Информация о звуке: 48 kHz, MP3 2.0, 128 kbps
    Раздача от:
    MediaInfo

    Общее
    Полное имя : Shhedroe.leto.1950.DVDRip-745_New-team_by_AVP_Studio.avi
    Формат : AVI
    Формат/Информация : Audio Video Interleave
    Размер файла : 745 Мбайт
    Продолжительность : 1 ч. 21 м.
    Общий поток : 1282 Кбит/сек
    Программа кодирования : VirtualDubMod 1.5.10.3 | www.virtualdub-fr.org || (build 2550/release)
    Библиотека кодирования : VirtualDubMod build 2550/release
    Видео
    Идентификатор : 0
    Формат : MPEG-4 Visual
    Профиль формата : Advanced Simple@L5
    Параметр BVOP формата : 1
    Параметр QPel формата : Нет
    Параметр GMC формата : Без точки перехода
    Параметр матрицы формата : Выборочная
    Идентификатор кодека : XVID
    Идентификатор кодека/Подсказка : XviD
    Продолжительность : 1 ч. 21 м.
    Битрейт : 1144 Кбит/сек
    Ширина : 640 пикселей
    Высота : 480 пикселей
    Соотношение сторон : 4: 3
    Частота кадров : 25, 000 кадров/сек
    Цветовое пространство : YUV
    Субдискретизация насыщенности : 4: 2: 0
    Битовая глубина : 8 бит
    Тип развёртки : Прогрессивная
    Метод сжатия : С потерями
    Бит/(Пиксели*Кадры) : 0.149
    Размер потока : 665 Мбайт (89%)
    Библиотека кодирования : XviD 73
    Аудио
    Идентификатор : 1
    Формат : MPEG Audio
    Версия формата : Version 1
    Профиль формата : Layer 3
    Идентификатор кодека : 55
    Идентификатор кодека/Подсказка : MP3
    Продолжительность : 1 ч. 21 м.
    Вид битрейта : Постоянный
    Битрейт : 128 Кбит/сек
    Каналы : 2 канала
    Частота : 48, 0 КГц
    Метод сжатия : С потерями
    Размер потока : 74, 4 Мбайт (10%)
    Выравнивание : Соединение по промежуткам
    Продолжительность промежутка : 40 мс. (1, 00 видеокадр)
    Время предзагрузки промежутка : 504 мс.
    Библиотека кодирования : LAME3.99r
    Залил: AVPStudio
    Размер скачиваемого торрента: 745.26 MB (781461504 Bytes)


    Щедрое лето (1950) DVDRip от New-Team
    загрузка...
    Рейтинг →
     (голосов: 1, оценка 5/5, голосовать можно 1 раз )

    Другие торренты по теме:

  • Щедрое лето (1950) DVDRip от New-Team
  • Щедрое лето (1950) DVDRip от New-Team


    • Комментарии (0):

      Информация

      Информация

        Посетители, находящиеся в группе Гости, не могут оставлять комментарии в данной новости.

        ↓ Меню



        ↓ Опрос

        А Вы добавили сайт в закладки?
        Да
        Не


        Top 10 за месяц (Фильмы)