.
Авторизация | Регистрация
Хочешь лучшие торренты? Добавь свой email!
Добавить
» » Мотоангелы ада / Hells Angels on Wheels (1967) HDRip-AVC | P торрент скачать бесплатно




    Мотоангелы ада / Hells Angels on Wheels (1967) HDRip-AVC | P торрент скачать бесплатно

    Опубликовал: Админ | Дата: 21-09-2015, 05:01 | Просмотров: 228


    Мотоангелы ада/Ангелы ада на колесах/Hells Angels on Wheels (1967) HDRip-AVC

    Создали в: США, Fanfare Films
    Категория жанра: Триллер, Драма, Криминал
    Главный режиссер: Ричард Раш
    Актеры: Джек Николсон, Адам Рорк, Сабрина Шарф, Яна Тейлор, Ричард Андерс, Джон Гарвуд, Джеймс Оливер, Джек Старретт

    Описание фильма

    Фильм рассказывает о начале становления байкерского движения в Америке- о жизни байкеров начала 60-х годов. Рабочий бензоколонки по кличке Поэт работает на бензозаправке, и когда один из так называемых клиентов его достал, просто бросает эту работу, садится на свой байк и уезжает. Вечером подъехав к какому-то кабаку на окраине города, он ввязывается в драку с одним из байкеров Hells Angels MC из-за побитой фары. Вот отсюда и начинает разворачиваться сюжет фильма.

    Релиз подготовил: FAGOT100(NNM-CLUB)
    Время просмотра: 01: 35: 32
    Качество фильма видео: HDRip-AVC (исх. BDRip 1080p)
    Перевод текста: Профессиональный (многоголосый, закадровый)
    Субтитры: отсутствуют
    Информация о видео: AVC, 1024x552 (1.855), 23.976 fps, 2 499 Kbps (0.184 bit/pixel)
    Информация о звуке #1: AC-3, 48.0 KHz, 2 ch, 192 Kbps, CBR (Russian)
    Информация о звуке #2: AC-3, 48.0 KHz, 2 ch, 192 Kbps, CBR (English)
    Mediainfo:

    Формат : Matroska
    Версия формата : Version 2
    Размер файла : 1, 93 Гбайт
    Продолжительность : 1 ч. 35 м.
    Общий поток : 2885 Кбит/сек
    Дата кодирования : UTC 2015-09-20 01: 02: 32
    Программа кодирования : mkvmerge v5.3.0 (;I could have danced;) built on Feb 9 2012 10: 38: 07
    Библиотека кодирования : libebml v1.2.3 + libmatroska v1.3.0
    Attachment : Yes
    Видео
    Идентификатор : 1
    Формат : AVC
    Формат/Информация : Advanced Video Codec
    Профиль формата : High@L4.1
    Параметр CABAC формата : Да
    Параметр ReFrames формата : 8 кадров
    Идентификатор кодека : V_MPEG4/ISO/AVC
    Продолжительность : 1 ч. 35 м.
    Битрейт : 2499 Кбит/сек
    Ширина : 1024 пикселя
    Высота : 552 пикселя
    Соотношение сторон : 1, 85: 1
    Режим частоты кадров : Постоянный
    Частота кадров : 23, 976 кадра/сек
    Цветовое пространство : YUV
    Субдискретизация насыщенности : 4: 2: 0
    Битовая глубина : 8 бит
    Тип развёртки : Прогрессивная
    Бит/(Пиксели*Кадры) : 0.184
    Размер потока : 1, 63 Гбайт (85%)
    Библиотека кодирования : x264 core 146 r2538 121396c
    Настройки программы : cabac=1/ref=8/deblock=1: -3: -3/analyse=0x3: 0x133/me=umh/subme=10/psy=1/psy_rd=1.00: 0.00/mixed_ref=1/me_range=32/chroma_me=1/trellis=2/8x8dct=1/cqm=0/deadzone=21, 11/fast_pskip=0/chroma_qp_offset=-2/threads=12/lookahead_threads=1/sliced_threads=0/nr=0/decimate=0/interlaced=0/bluray_compat=0/constrained_intra=0/bframes=6/b_pyramid=2/b_adapt=2/b_bias=0/direct=3/weightb=1/open_gop=0/weightp=2/keyint=240/keyint_min=23/scenecut=40/intra_refresh=0/rc=2pass/mbtree=0/bitrate=2499/ratetol=1.0/qcomp=0.60/qpmin=0/qpmax=69/qpstep=4/cplxblur=20.0/qblur=0.5/ip_ratio=1.40/pb_ratio=1.30/aq=1: 1.00
    Язык : English
    Default : Да
    Forced : Нет
    Аудио #1
    Идентификатор : 2
    Формат : AC-3
    Формат/Информация : Audio Coding 3
    Расширение режима : CM (complete main)
    Параметр Endianness формата : Big
    Идентификатор кодека : A_AC3
    Продолжительность : 1 ч. 35 м.
    Вид битрейта : Постоянный
    Битрейт : 192 Кбит/сек
    Каналы : 2 канала
    Расположение каналов : Front: L R
    Частота : 48, 0 КГц
    Битовая глубина : 16 бит
    Метод сжатия : С потерями
    Размер потока : 131 Мбайт (7%)
    Язык : Russian
    Default : Да
    Forced : Нет
    Аудио #2
    Идентификатор : 3
    Формат : AC-3
    Формат/Информация : Audio Coding 3
    Расширение режима : CM (complete main)
    Параметр Endianness формата : Big
    Идентификатор кодека : A_AC3
    Продолжительность : 1 ч. 35 м.
    Вид битрейта : Постоянный
    Битрейт : 192 Кбит/сек
    Каналы : 2 канала
    Расположение каналов : Front: L R
    Частота : 48, 0 КГц
    Битовая глубина : 16 бит
    Метод сжатия : С потерями
    Размер потока : 131 Мбайт (7%)
    Язык : English
    Default : Нет
    Forced : Нет
    Скриншоты






    Размер скачиваемого торрента: 1.93 GB (2067107560 Bytes)

    Мотоангелы ада/Hells Angels on Wheels (1967) HDRip-AVC | P
    загрузка...
    Рейтинг →
     (голосов: 1, оценка 4/5, голосовать можно 1 раз )

    Другие торренты по теме:



      Комментарии (0):

      Информация

      Информация

        Посетители, находящиеся в группе Гости, не могут оставлять комментарии в данной новости.

        ↓ Меню



        ↓ Опрос

        А Вы добавили сайт в закладки?
        Да
        Не


        Top 10 за месяц (Фильмы)