.
Авторизация | Регистрация
» » Крутые Стволы / Mean Guns (1997) HDRip от Leon-masl | P2 | Directors cut скачать торрент бесплатно




    Крутые Стволы / Mean Guns (1997) HDRip от Leon-masl | P2 | Directors cut скачать торрент бесплатно

    Опубликовал: Админ | Дата: 22-09-2015, 05:01 | Просмотров: 163



    Детально о кино
    Русское название: Крутые Стволы
    Русское название в мировом прокате: Mean Guns
    Создали в: 1997
    Категория жанра: криминал, боевик
    Главный режиссер: Альберт Пьюн/Albert Pyun

    Актеры
    Кристофер Ламберт , Айс-Ти , Майкл Холси, Кимберли Уоррен, Тина Котэ, Юджи Окумото, Том Мэтьюз, Хантер Доути, Дебора Ван Валкенберг

    Сюжет фильма

    В только что отстроенной тюрьме некий Мун собирает самых крутых боевиков синдиката и объявляет правила игры, отказаться от которых невозможно. Трое оставшихся в живых должны забрать приз в 10 млн. долларов.
    Игра начинается. В общем сражении образуются две группы, из которых выделяется одна - с политическим профессиональным убийцей, его бывшим боссом, очень крутой блондинкой и случайно попавшей в эту историю журналисткой.

    Снималось в: США
    Киностудия: Filmwerks
    Время просмотра: 01: 50: 21
    Перевод текста: Профессиональный (двухголосый закадровый) Twister

    Файл
    Кодек для видео: XviD
    Качество фильма: HDRip
    Информация о видео: 704x400, 23, 976 fps, 1695 kbps
    Информация о звуке: AC3, 2 ch, 192.0 kbps, 48kHz
    MI
    Общее
    Полное имя : Mean.Guns.1997.HDRip.avi
    Формат : AVI
    Формат/Информация : Audio Video Interleave
    Размер файла : 1, 46 Гбайт
    Продолжительность : 1 ч. 50 м.
    Общий поток : 1896 Кбит/сек
    Программа кодирования : VirtualDubMod 1.5.10.2 (build 2542/release)
    Библиотека кодирования : VirtualDubMod build 2542/release
    Видео
    Идентификатор : 0
    Формат : MPEG-4 Visual
    Профиль формата : Advanced Simple@L5
    Параметр BVOP формата : 1
    Параметр QPel формата : Нет
    Параметр GMC формата : Без точки перехода
    Параметр матрицы формата : Выборочная
    Идентификатор кодека : XVID
    Идентификатор кодека/Подсказка : XviD
    Продолжительность : 1 ч. 50 м.
    Битрейт : 1695 Кбит/сек
    Ширина : 704 пикс.
    Высота : 400 пикс.
    Соотношение сторон : 16: 9
    Частота кадров : 23, 976 кадр/сек
    Цветовое пространство : YUV
    Подвыборка цветности : 4: 2: 0
    Битовая глубина : 8 бит
    Тип развёртки : Прогрессивная
    Метод сжатия : С потерями
    Бит/(Пиксели*Кадры) : 0.251
    Размер потока : 1, 31 Гбайт (89%)
    Библиотека кодирования : XviD 73
    Аудио
    Идентификатор : 1
    Формат : AC-3
    Формат/Информация : Audio Coding 3
    Расширение режима : CM (complete main)
    Идентификатор кодека : 2000
    Продолжительность : 1 ч. 50 м.
    Вид битрейта : Постоянный
    Битрейт : 192 Кбит/сек
    Канал(ы) : 2 канала(ов)
    Расположение каналов : Front: L R
    Частота : 48, 0 КГц
    Битовая глубина : 16 бит
    Метод сжатия : С потерями
    Размер потока : 151 Мбайт (10%)
    Выравнивание : Разделение по промежуткам
    Продолжительность промежутка : 42 мс. (1, 00 видеокадр)
    Время предзагрузки промежутка : 500 ms
    Скриншоты

    Релиз подготовил: Leon-masl
    Залил: leon-masl
    Размер скачиваемого торрента: 1.46 GB (1569193984 Bytes)

    Крутые Стволы/Mean Guns (1997) HDRip от Leon-masl | P2 | Directors cut
    загрузка...
    Рейтинг →
     (голосов: 1, оценка 5/5, голосовать можно 1 раз )

    Другие торренты по теме:

  • Крутые Стволы / Mean Guns (1997) DVDRip от Leon-masl | P2 | Directors cut скачать через торрент бесплатно
  • Крутые Стволы / Mean Guns (1997) BDRip-AVC | P2 | Directors cut скачать торрент бесплатно
  • Крутые Стволы (Полная версия) / Mean Guns (Unrated Director's Cut) / 1997 / ПМ, 2 х ПД, АП (Живов), СТ / Blu-Ray Remux (1080p) скачать торрент бесплатно
  • Крутые стволы / Mean Guns (1997) BDRip 1080p | Directors cut | P, P2, A скачать торрент бесплатно


    • Комментарии (0):

      Информация

      Информация

        Посетители, находящиеся в группе Гости, не могут оставлять комментарии в данной новости.

        ↓ Меню



        ↓ Опрос

        А Вы добавили сайт в закладки?
        Да
        Не


        Top 10 за неделю (Фильмы)