.
Авторизация | Регистрация
» » Товарищ генерал (1973) SATRip от New-Team скачать торрент бесплатно




    Товарищ генерал (1973) SATRip от New-Team скачать торрент бесплатно

    Опубликовал: Админ | Дата: 25-09-2015, 05:01 | Просмотров: 153



    Снималось в: СССР
    Создали в: Мосфильм
    Категория жанра: драма, военный
    Создали в: 1973
    Время просмотра: 01: 24: 32
    Перевод текста: Не требуется
    Субтитры подготовлены: нет
    Оригинальная аудиодорожка: русский
    Главный режиссер: Теодор Вульфович

    Актеры

    Игорь Ледогоров, Георгий Куликов, Виктор Шульгин, Павел Махотин, Владимир Осенев, Раиса Куркина, Ольга Гобзева, Зинаида Славина, Игорь Класс, Алексей Преснецов, Юрий Волков, Юрий Волынцев, Шавкат Газиев, Виктор Задубровский, Михаил Кислов, Владимир Кашпур, Виктор Павлов, Борис Кордунов, Борис Руднев, Леонид Кулагин, Роберт Лигерс...
    Полный список актёров
    Описание:
    1941 год. Армия командарма Капитонова принимает на себя удар немецких войск, рвущихся к Ростову. Хорошо зная тактику немецкого генерала Лейнца, Капитонов блестяще проводит операцию, вошедшую в историю войны под названием “Дьяковской обороны”.



    Источник: DVB
    Качество фильма видео: SATRip
    Тип видео видео: AVI
    Информация о видео: 704x304 (2, 35: 1), 25 fps, XviD ~ 1029 kbps avg, 0.192 bit/pixel
    Информация о звуке: 48 kHz, Dolby Digital AC3 2.0, 192 kbps
    Раздача от:
    MediaInfo

    Общее
    Полное имя : Tovarishh.general.1973.SATRip_New-team_by_AVP_Studio.avi
    Формат : AVI
    Формат/Информация : Audio Video Interleave
    Размер файла : 744 Мбайт
    Продолжительность : 1 ч. 24 м.
    Общий поток : 1231 Кбит/сек
    Программа кодирования : VirtualDubMod 1.5.10.3 | www.virtualdub-fr.org || (build 2550/release)
    Библиотека кодирования : VirtualDubMod build 2550/release
    Видео
    Идентификатор : 0
    Формат : MPEG-4 Visual
    Профиль формата : Advanced Simple@L5
    Параметр BVOP формата : 1
    Параметр QPel формата : Нет
    Параметр GMC формата : Без точки перехода
    Параметр матрицы формата : Выборочная
    Идентификатор кодека : XVID
    Идентификатор кодека/Подсказка : XviD
    Продолжительность : 1 ч. 24 м.
    Битрейт : 1029 Кбит/сек
    Ширина : 704 пикселя
    Высота : 304 пикселя
    Соотношение сторон : 2, 35: 1
    Частота кадров : 25, 000 кадров/сек
    Цветовое пространство : YUV
    Субдискретизация насыщенности : 4: 2: 0
    Битовая глубина : 8 бит
    Тип развёртки : Прогрессивная
    Метод сжатия : С потерями
    Бит/(Пиксели*Кадры) : 0.192
    Размер потока : 622 Мбайт (84%)
    Библиотека кодирования : XviD 73
    Аудио
    Идентификатор : 1
    Формат : AC-3
    Формат/Информация : Audio Coding 3
    Расширение режима : CM (complete main)
    Параметр Endianness формата : Big
    Идентификатор кодека : 2000
    Продолжительность : 1 ч. 24 м.
    Вид битрейта : Постоянный
    Битрейт : 192 Кбит/сек
    Каналы : 2 канала
    Расположение каналов : Front: L R
    Частота : 48, 0 КГц
    Метод сжатия : С потерями
    Размер потока : 116 Мбайт (16%)
    Выравнивание : Разделение по промежуткам
    Продолжительность промежутка : 40 мс. (1, 00 видеокадр)
    Время предзагрузки промежутка : 500 мс

    Скриншоты



    Залил: AVPStudio
    Размер скачиваемого торрента: 744.43 MB (780589056 Bytes)

    Товарищ генерал (1973) SATRip от New-Team
    загрузка...
    Рейтинг →
     (голосов: 1, оценка 3/5, голосовать можно 1 раз )

    Другие торренты по теме:

  • Три товарища (2012) DVDRip-AVC от New-Team | лицензия торрент скачать бесплатно
  • Три товарища (2012) DVDRip от New-Team | лицензия торрент скачать бесплатно
  • Три товарища (2012) DVD9 R5 от New-Team | лицензия скачать через торрент бесплатно
  • Три товарища (2012) WEB-DL 1080p торрент скачать бесплатно
  • Васек Трубачев и его товарищи. Трилогия торрент скачать бесплатно
  • Товарищи офицеры скачать через торрент бесплатно
  • Господа-товарищи (1-2 серии из торрент скачать бесплатно
  • Господа-товарищи (2014) SATRip от Files-x скачать через торрент бесплатно


    • Комментарии (0):

      Информация

      Информация

        Посетители, находящиеся в группе Гости, не могут оставлять комментарии в данной новости.

        ↓ Меню



        ↓ Опрос

        А Вы добавили сайт в закладки?
        Да
        Не


        Top 10 за неделю (Фильмы)