.
Авторизация | Регистрация
» » Закон жизни (1940) SATRip от New-Team скачать торрент бесплатно




    Закон жизни (1940) SATRip от New-Team скачать торрент бесплатно

    Опубликовал: Админ | Дата: 30-09-2015, 05:00 | Просмотров: 138



    Снималось в: СССР
    Создали в: Мосфильм
    Категория жанра: драма
    Создали в: 1940
    Время просмотра: 01: 35: 36
    Перевод текста: Не требуется
    Субтитры подготовлены: нет
    Оригинальная аудиодорожка: русский
    Главный режиссер: Борис Иванов, Александр Столпер

    Актеры

    Даниил Сагал, Александр Лукьянов, Освальд Глазунов (Глазниек), Нина Зорская, Елена Кондратьева, Анна Запорожец, Григорий Шпигель, Михаил Сидоркин, Иван Любезнов, Алексей Алексеев, Борис Терентьев, Валентина Караваева, Наталья Гицерот, Александр Смирнов, Надир Малишевский...
    Описание:
    О жизни советского студенчества. Группа студентов-выпускников мединститута устраивает прощальный вечер. Неожиданно появившийся секретарь обкома комсомола начинает откровенную агитацию половой распущенности. Вечеринка превращается в безобразную пьянку…



    Источник: DVB
    Качество фильма видео: SATRip
    Тип видео видео: AVI
    Виде: 592x448 (4: 3), 25 fps, XviD ~ 951 kbps avg, 0.143 bit/pixel
    Информация о звуке: 48 kHz, MP3 2.0, 128 kbps
    Раздача от:
    MediaInfo

    Общее
    Полное имя : Zakon.zhizni.1940.SATRip-745_New-team_by_AVP_Studio.avi
    Формат : AVI
    Формат/Информация : Audio Video Interleave
    Размер файла : 744 Мбайт
    Продолжительность : 1 ч. 35 м.
    Общий поток : 1088 Кбит/сек
    Программа кодирования : VirtualDubModRus 1.5.10.2 (build 2542/release)
    Библиотека кодирования : VirtualDubMod build 2542/release
    Видео
    Идентификатор : 0
    Формат : MPEG-4 Visual
    Профиль формата : Advanced Simple@L5
    Параметр BVOP формата : 1
    Параметр QPel формата : Нет
    Параметр GMC формата : Без точки перехода
    Параметр матрицы формата : Выборочная
    Идентификатор кодека : XVID
    Идентификатор кодека/Подсказка : XviD
    Продолжительность : 1 ч. 35 м.
    Битрейт : 951 Кбит/сек
    Ширина : 592 пикселя
    Высота : 448 пикселей
    Соотношение сторон : 4: 3
    Частота кадров : 25, 000 кадров/сек
    Цветовое пространство : YUV
    Субдискретизация насыщенности : 4: 2: 0
    Битовая глубина : 8 бит
    Тип развёртки : Прогрессивная
    Метод сжатия : С потерями
    Бит/(Пиксели*Кадры) : 0.143
    Размер потока : 650 Мбайт (87%)
    Библиотека кодирования : XviD 73
    Аудио
    Идентификатор : 1
    Формат : MPEG Audio
    Версия формата : Version 1
    Профиль формата : Layer 3
    Идентификатор кодека : 55
    Идентификатор кодека/Подсказка : MP3
    Продолжительность : 1 ч. 35 м.
    Вид битрейта : Постоянный
    Битрейт : 128 Кбит/сек
    Каналы : 2 канала
    Частота : 48, 0 КГц
    Метод сжатия : С потерями
    Размер потока : 87, 5 Мбайт (12%)
    Выравнивание : Соединение по промежуткам
    Продолжительность промежутка : 40 мс. (1, 00 видеокадр)
    Время предзагрузки промежутка : 504 мс.
    Библиотека кодирования : LAME3.99r
    Залил: AVPStudio

    Онлайн видео Закон жизни (1940) SATRip от New


    Размер скачиваемого торрента: 744.49 MB (780650496 Bytes)


    Закон жизни (1940) SATRip от New-Team
    загрузка...
    Рейтинг →
     (голосов: 1, оценка 4/5, голосовать можно 1 раз )

    Другие торренты по теме:

  • Гари Зорба - Книга Минимализмы Жизни. Основные Законы Жизни в Духе Минимализма! (2014) PDF скачать через торрент бесплатно
  • Закон жизни (1940) SATRip-AVC от New-Team скачать через торрент бесплатно
  • Луис Блумфилд - Как все работает. Законы физики в нашей жизни (2016) PDF скачать торрент бесплатно


    • Комментарии (0):

      Информация

      Информация

        Посетители, находящиеся в группе Гости, не могут оставлять комментарии в данной новости.

        ↓ Меню



        ↓ Опрос

        А Вы добавили сайт в закладки?
        Да
        Не


        Top 10 за неделю (Фильмы)