.
Авторизация | Регистрация
Хочешь лучшие торренты? Добавь свой email!
Добавить
» » Шпион / Spy (2015) BDRip 720p | Unrated Cut | D, A | Лицензия торрент скачать бесплатно




    Шпион / Spy (2015) BDRip 720p | Unrated Cut | D, A | Лицензия торрент скачать бесплатно

    Опубликовал: Админ | Дата: 30-09-2015, 05:01 | Просмотров: 114



    Детально о кино
    Русское название: Шпион
    Русское название в мировом прокате: Spy
    Создали в: 2015
    Категория жанра: Боевик, комедия
    Снималось в: США, Feigco Entertainment, Twentieth Century Fox
    Главный режиссер: Пол Фиг

    Актеры
    Мелисса МакКарти, Джейсон Стэйтем, Джуд Лоу, Роуз Бирн, Миранда Харт, Бобби Каннавейл, Морена Баккарин, Раад Рави, Джессика Чаффин, Сэм Ричардсон, Кэти Дипполд, Джейм Пачеко, Ромейн Апельбаум, Ричард Брэйк, Стив Баннос, Карлос Понсе, Уилл Юн Ли, Майкл МакДональд, Адам Рэй, Лукач Бичкеи

    Сюжет фильма
    Сьюзан Купер всю свою жизнь мечтала стать секретным агентом и даже устроилась работать в ЦРУ. Однако, дальше сотрудника самой низкой ступени ей так и не удалось продвинуться. Понимая, что осуществить свою мечту практически невозможно, она все-таки продолжает надеяться на лучшее и с нетерпением ожидает своего шанса. И вскоре судьба дарит ей такую возможность. Лучший агент проваливает секретное задание, в ходе которого он должен был выяснить местонахождение ядерной бомбы, но, совершенно случайно, застрелил единственного человека, владеющего этой информацией. Через некоторое время службе разведки становится известно, что Рейна Боянова знает, где находится бомба, но она также знает в лицо всех секретных агентов ЦРУ. Теперь у руководства не остается другого выбора, как воспользоваться услугами Сьюзан Купер, но сможет ли она справиться со столь сложной миссией?
    Качество фильма: BDRip (720p)
    Информация о видео: MPEG-4 AVC, 6781 Кбит/с, 1280x536
    Информация о звуке: Русский, украинский (AC3, 6 ch, 448 Кбит/с), русский, английский (DTS-ES, 6 ch, 1510 Кбит/с), (AAC, 2 ch, 64 Кбит/с)
    Размер скачиваемого торрента: 9.94 ГБ
    Время просмотра: 02: 10: 23
    Перевод текста: Дублированный, авторский М. Яроцкий
    Субтитры: Русские, английские, украинские
    MI
    Общее
    Уникальный идентификатор : 250400464676092019814840790999013588677 (0xBC616013B6DC90C3A4F2FFF1BC64FEC5)
    Полное имя : C: Spy.2015.Extended.Unrated.BDRip.720p.BLUEBIRD.mkv
    Формат : Matroska
    Версия формата : Version 2
    Размер файла : 9, 94 Гбайт
    Продолжительность : 2 ч. 10 м.
    Общий поток : 10, 9 Мбит/сек
    Название фильма : BLUEBIRD
    Дата кодирования : UTC 2015-09-28 19: 40: 09
    Программа кодирования : mkvmerge v7.9.0 (;Birds;) 64bit
    Библиотека кодирования : libebml v1.3.1 + libmatroska v1.4.2
    Видео
    Идентификатор : 1
    Формат : AVC
    Формат/Информация : Advanced Video Codec
    Профиль формата : High@L4.1
    Параметр CABAC формата : Да
    Параметр ReFrames формата : 12 кадров
    Идентификатор кодека : V_MPEG4/ISO/AVC
    Продолжительность : 2 ч. 10 м.
    Ширина : 1280 пикселей
    Высота : 536 пикселей
    Соотношение сторон : 2, 40: 1
    Режим частоты кадров : Постоянный
    Частота кадров : 23, 976 кадра/сек
    Цветовое пространство : YUV
    Субдискретизация насыщенности : 4: 2: 0
    Битовая глубина : 8 бит
    Тип развёртки : Прогрессивная
    Заголовок : x264
    Библиотека кодирования : x264 core 148 r2597 e86f3a1
    Настройки программы : cabac=1/ref=12/deblock=1: -3: -3/analyse=0x3: 0x133/me=tesa/subme=11/psy=1/psy_rd=1.00: 0.00/mixed_ref=1/me_range=32/chroma_me=1/trellis=2/8x8dct=1/cqm=0/deadzone=21, 11/fast_pskip=0/chroma_qp_offset=-2/threads=12/lookahead_threads=3/sliced_threads=0/nr=0/decimate=1/interlaced=0/bluray_compat=0/constrained_intra=0/bframes=10/b_pyramid=2/b_adapt=2/b_bias=0/direct=3/weightb=1/open_gop=0/weightp=2/keyint=240/keyint_min=23/scenecut=40/intra_refresh=0/rc_lookahead=60/rc=crf/mbtree=0/crf=15.5/qcomp=0.73/qpmin=0/qpmax=69/qpstep=4/vbv_maxrate=62500/vbv_bufsize=78125/crf_max=0.0/nal_hrd=none/filler=0/ip_ratio=1.24/pb_ratio=1.18/aq=1: 0.80
    Язык : English
    Default : Да
    Forced : Нет
    Аудио #1
    Идентификатор : 2
    Формат : AC-3
    Формат/Информация : Audio Coding 3
    Расширение режима : CM (complete main)
    Параметр Endianness формата : Big
    Идентификатор кодека : A_AC3
    Продолжительность : 2 ч. 10 м.
    Вид битрейта : Постоянный
    Битрейт : 448 Кбит/сек
    Каналы : 6 каналов
    Расположение каналов : Front: L C R, Side: L R, LFE
    Частота : 48, 0 КГц
    Метод сжатия : С потерями
    Размер потока : 418 Мбайт (4%)
    Заголовок : DUB, BD EUR
    Язык : Russian
    Default : Нет
    Forced : Нет
    Аудио #2
    Идентификатор : 3
    Формат : AC-3
    Формат/Информация : Audio Coding 3
    Расширение режима : CM (complete main)
    Параметр Endianness формата : Big
    Идентификатор кодека : A_AC3
    Продолжительность : 2 ч. 10 м.
    Вид битрейта : Постоянный
    Битрейт : 448 Кбит/сек
    Каналы : 6 каналов
    Расположение каналов : Front: L C R, Side: L R, LFE
    Частота : 48, 0 КГц
    Метод сжатия : С потерями
    Размер потока : 418 Мбайт (4%)
    Заголовок : DUB, BD EUR
    Язык : Ukrainian
    Default : Да
    Forced : Нет
    Аудио #3
    Идентификатор : 4
    Формат : DTS
    Формат/Информация : Digital Theater Systems
    Профиль формата : ES
    Режим : 16
    Параметр Endianness формата : Big
    Идентификатор кодека : A_DTS
    Продолжительность : 2 ч. 10 м.
    Вид битрейта : Постоянный
    Битрейт : 1509 Кбит/сек
    Каналы : 6 каналов
    Расположение каналов : Front: L C R, Side: L R, LFE
    Частота : 48, 0 КГц
    Битовая глубина : 24 бит
    Метод сжатия : С потерями
    Размер потока : 1, 37 Гбайт (14%)
    Заголовок : VO. Яроцкий
    Язык : Russian
    Default : Нет
    Forced : Нет
    Аудио #4
    Идентификатор : 5
    Формат : DTS
    Формат/Информация : Digital Theater Systems
    Профиль формата : ES
    Режим : 16
    Параметр Endianness формата : Big
    Идентификатор кодека : A_DTS
    Продолжительность : 2 ч. 10 м.
    Вид битрейта : Постоянный
    Битрейт : 1509 Кбит/сек
    Каналы : 6 каналов
    Расположение каналов : Front: L C R, Side: L R, LFE
    Частота : 48, 0 КГц
    Битовая глубина : 24 бит
    Метод сжатия : С потерями
    Размер потока : 1, 37 Гбайт (14%)
    Заголовок : Original
    Язык : English
    Default : Нет
    Forced : Нет
    Аудио #5
    Идентификатор : 6
    Формат : AAC
    Формат/Информация : Advanced Audio Codec
    Профиль формата : HE-AAC/LC
    Идентификатор кодека : A_AAC
    Продолжительность : 2 ч. 10 м.
    Каналы : 2 канала
    Расположение каналов : Front: L R
    Частота : 48, 0 КГц/24, 0 КГц
    Метод сжатия : С потерями
    Задержка видео : 31 мс.
    Заголовок : commentary
    Язык : English
    Default : Нет
    Forced : Нет
    Текст #1
    Идентификатор : 7
    Формат : UTF-8
    Идентификатор кодека : S_TEXT/UTF8
    Идентификатор кодека/Информация : UTF-8 Plain Text
    Заголовок : Forced
    Язык : Russian
    Default : Да
    Forced : Нет
    Текст #2
    Идентификатор : 8
    Формат : UTF-8
    Идентификатор кодека : S_TEXT/UTF8
    Идентификатор кодека/Информация : UTF-8 Plain Text
    Заголовок : Full
    Язык : Russian
    Default : Нет
    Forced : Нет
    Текст #3
    Идентификатор : 9
    Формат : UTF-8
    Идентификатор кодека : S_TEXT/UTF8
    Идентификатор кодека/Информация : UTF-8 Plain Text
    Заголовок : Full
    Язык : Ukrainian
    Default : Нет
    Forced : Нет
    Текст #4
    Идентификатор : 10
    Формат : UTF-8
    Идентификатор кодека : S_TEXT/UTF8
    Идентификатор кодека/Информация : UTF-8 Plain Text
    Заголовок : Forced
    Язык : English
    Default : Нет
    Forced : Нет
    Текст #5
    Идентификатор : 11
    Формат : UTF-8
    Идентификатор кодека : S_TEXT/UTF8
    Идентификатор кодека/Информация : UTF-8 Plain Text
    Заголовок : Full
    Язык : English
    Default : Нет
    Forced : Нет
    Меню
    00: 00: 00.000 : en: 00: 00: 00.000
    00: 03: 38.593 : en: 00: 03: 38.593
    00: 07: 46.132 : en: 00: 07: 46.132
    00: 10: 08.691 : en: 00: 10: 08.691
    00: 14: 11.142 : en: 00: 14: 11.142
    00: 15: 42.859 : en: 00: 15: 42.859
    00: 20: 54.378 : en: 00: 20: 54.378
    00: 23: 25.863 : en: 00: 23: 25.863
    00: 27: 59.928 : en: 00: 27: 59.928
    00: 31: 11.077 : en: 00: 31: 11.077
    00: 34: 24.062 : en: 00: 34: 24.062
    00: 39: 30.576 : en: 00: 39: 30.576
    00: 45: 24.847 : en: 00: 45: 24.847
    00: 47: 42.318 : en: 00: 47: 42.318
    00: 50: 48.128 : en: 00: 50: 48.128
    00: 55: 26.656 : en: 00: 55: 26.656
    00: 58: 28.547 : en: 00: 58: 28.547
    01: 03: 35.728 : en: 01: 03: 35.728
    01: 08: 58.509 : en: 01: 08: 58.509
    01: 11: 00.131 : en: 01: 11: 00.131
    01: 16: 25.998 : en: 01: 16: 25.998
    01: 22: 32.906 : en: 01: 22: 32.906
    01: 28: 07.323 : en: 01: 28: 07.323
    01: 33: 11.419 : en: 01: 33: 11.419
    01: 37: 02.858 : en: 01: 37: 02.858
    01: 40: 18.429 : en: 01: 40: 18.429
    01: 47: 27.190 : en: 01: 47: 27.190
    01: 50: 45.055 : en: 01: 50: 45.055
    01: 55: 31.382 : en: 01: 55: 31.382
    01: 59: 40.464 : en: 01: 59: 40.464
    02: 02: 28.341 : en: 02: 02: 28.341
    02: 05: 03.662 : en: 02: 05: 03.662

    Скриншоты



    Релиз подготовил:
    Размер скачиваемого торрента: 9.94 GB (10677120446 Bytes)

    Шпион/Spy (2015) BDRip 720p | Unrated Cut | D, A | Лицензия
    загрузка...
    Рейтинг →
     (голосов: 1, оценка 5/5, голосовать можно 1 раз )

    Другие торренты по теме:

  • Шпион, выйди вон! / Tinker Tailor Soldier Spy (2011) BDRip-AVC от MediaClub | D, A скачать через торрент бесплатно
  • Шпион, выйди вон! / Tinker Tailor Soldier Spy (2011) BDRip-AVC 720p | ATV | A,D | Лицензия скачать через торрент бесплатно
  • Шпион / Spy (2015) BDRip 720p | Unrated Cut | iTunes
  • Шпион / Spy (2015) BDRip от ivandubskoj | Unrated Cut | D, A
  • Шпион / Spy (2015) BDRip от ivandubskoj | Unrated Cut | iTunes
  • Шпион / Spy (2015) BDRip | Театральная версия | Лицензия
  • Шпион (Расширенная версия) / Spy (Unrated Cut) / 2015 / ДБ, АП (Яроцкий), СТ / BDRip (1080p)
  • Шпион / Spy / 2015 / ДБ, СТ / BDRip (1080p)


    • Комментарии (0):

      Информация

      Информация

        Посетители, находящиеся в группе Гости, не могут оставлять комментарии в данной новости.

        ↓ Меню



        ↓ Опрос

        А Вы добавили сайт в закладки?
        Да
        Не


        Top 10 за месяц (Фильмы)