.
Авторизация | Регистрация
Хочешь лучшие торренты? Добавь свой email!
Добавить
» » А теперь не смотри / Dont Look Now (1973) BDRip-AVC by msltel торрент скачать бесплатно




    А теперь не смотри / Dont Look Now (1973) BDRip-AVC by msltel торрент скачать бесплатно

    Опубликовал: Админ | Дата: 30-09-2015, 05:01 | Просмотров: 92



    Русское название: А теперь не смотри
    Русское название в мировом прокате: Don;t Look Now
    Создали в: 1973
    Снималось в: Великобритания, Италия
    Категория жанра: триллер, драма, ужасы
    Время просмотра: 01: 50: 22
    Перевод текста: профессиональный многоголосый, профессиональный двухголосый, авторский
    Главный режиссёр: Николас Роуг

    Актеры
    Джули Кристи, Дональд Сазерленд, Хилари Мейсон, Клелия Матания, Массимо Серато, Ренато Скарпа, Джорджо Трестини, Леопольдо Триесте, Дэвид Три, Энн Рай, Николас Сэлтер, Шарон Уильямс, Бруно Каттанео, Аделина Поэрио
    Описание: Супруги Лаура и Джон Бэкстеры потеряли дочь. Чтобы забыться в собственном горе и, возможно, восстановить хрупкое равновесие в пошатнувшемся браке, Джон соглашается на работу в Венеции. Однако смена декораций для Бэкстеров оказывается временной иллюзией. Венеция, холодная, призрачная и смертоносная, не только не дает облегчения, но и приносит новые страдания и кошмарные загадки... Фильм по рассказу Дафны Дю Морье.

    Качество фильма: BDRip AVC Сравнение с исходником
    Тип видео: MKV
    Информация о видео: MPEG-4 AVC, 2987 Кбит/с, 1280x552, 23, 976 кадра/с
    Информация о звуке 1: русский, AC3, 192 kbps, 2 ch, 48 kHz профессиональный многоголосый, HTB
    Информация о звуке 2: русский, AC3, 192 kbps, 2 ch, 48 kHz профессиональный двухголосый, CP-Digital
    Внешние файлы
    Информация о звуке: русский, AC3, 192 kbps, 2 ch, 48 kHz профессиональный двухголосый, Эльром
    Информация о звуке: русский, AC3, 192 kbps, 2 ch, 48 kHz авторский, Алексей Михалёв
    Информация о звуке: русский, AC3, 192 kbps, 2 ch, 48 kHz авторский, Юрий Сербин
    Информация о звуке: английский, AC3, 192 kbps, 2 ch, 48 kHz оригинал
    Субтитры: русские
    Субтитры: английские
    Награды
    Сатурн, 1975 год
    Номинации (1):
    Лучший фильм ужасов
    Британская академия, 1974 год
    Победитель (1):
    Лучшая работа оператора
    Номинации (6):
    Лучший фильм
    Лучшая мужская роль (Дональд Сазерленд)
    Лучшая женская роль (Джули Кристи)
    Лучший режиссер (Николас Роуг)
    Лучший саундтрек
    Лучший монтаж

    Инфо-файл
    Общее
    Полное имя : D: VideoА теперь не смотри.1973.BDRip.AVCА теперь не смотри.1973.AVO.rus.А.Михалёв.ac3
    Формат : AC-3
    Формат/Информация : Audio Coding 3
    Размер файла : 152 Мбайт
    Продолжительность : 1 ч. 50 м.
    Режим общего битрейта : Постоянный
    Общий поток : 192 Кбит/сек
    Аудио
    Формат : AC-3
    Формат/Информация : Audio Coding 3
    Расширение режима : CM (complete main)
    Параметр Endianness формата : Big
    Продолжительность : 1 ч. 50 м.
    Вид битрейта : Постоянный
    Битрейт : 192 Кбит/сек
    Каналы : 2 канала
    Расположение каналов : Front: L R
    Частота : 48, 0 КГц
    Метод сжатия : С потерями
    Размер потока : 152 Мбайт (100%)
    Общее
    Полное имя : D: VideoА теперь не смотри.1973.BDRip.AVCА теперь не смотри.1973.AVO.rus.Ю.Сербин.ac3
    Формат : AC-3
    Формат/Информация : Audio Coding 3
    Размер файла : 152 Мбайт
    Продолжительность : 1 ч. 50 м.
    Режим общего битрейта : Постоянный
    Общий поток : 192 Кбит/сек
    Аудио
    Формат : AC-3
    Формат/Информация : Audio Coding 3
    Расширение режима : CM (complete main)
    Параметр Endianness формата : Big
    Продолжительность : 1 ч. 50 м.
    Вид битрейта : Постоянный
    Битрейт : 192 Кбит/сек
    Каналы : 2 канала
    Расположение каналов : Front: L R
    Частота : 48, 0 КГц
    Метод сжатия : С потерями
    Размер потока : 152 Мбайт (100%)
    Общее
    Уникальный идентификатор : 197150525460867192629276758601044635283 (0x9451CF5FAD7F673484899916DB80AE93)
    Полное имя : D: VideoА теперь не смотри.1973.BDRip.AVCА теперь не смотри.1973.BDRip.AVC.mkv
    Формат : Matroska
    Версия формата : Version 4/Version 2
    Размер файла : 2, 65 Гбайт
    Продолжительность : 1 ч. 50 м.
    Общий поток : 3439 Кбит/сек
    Название фильма : BDRip -- STarankov
    Дата кодирования : UTC 2015-09-29 09: 36: 24
    Программа кодирования : mkvmerge v8.2.0 (;World of Adventure;) 64bit
    Библиотека кодирования : libebml v1.3.1 + libmatroska v1.4.2
    DURATION : 01: 50: 22.784000000
    NUMBER_OF_FRAMES : 206962
    NUMBER_OF_BYTES : 158946816
    _STATISTICS_WRITING_APP : mkvmerge v8.2.0 (;World of Adventure;) 64bit
    _STATISTICS_WRITING_DATE_UTC : 2015-09-29 09: 36: 24
    _STATISTICS_TAGS : BPS DURATION NUMBER_OF_FRAMES NUMBER_OF_BYTES
    Видео
    Идентификатор : 1
    Формат : AVC
    Формат/Информация : Advanced Video Codec
    Профиль формата : High@L4.1
    Параметр CABAC формата : Да
    Параметр ReFrames формата : 9 кадров
    Идентификатор кодека : V_MPEG4/ISO/AVC
    Продолжительность : 1 ч. 50 м.
    Битрейт : 2987 Кбит/сек
    Ширина : 1024 пикселя
    Высота : 552 пикселя
    Соотношение сторон : 1, 85: 1
    Режим частоты кадров : Постоянный
    Частота кадров : 23, 976 кадра/сек
    Цветовое пространство : YUV
    Субдискретизация насыщенности : 4: 2: 0
    Битовая глубина : 8 бит
    Тип развёртки : Прогрессивная
    Бит/(Пиксели*Кадры) : 0.220
    Размер потока : 2, 30 Гбайт (87%)
    Библиотека кодирования : x264 core 146 r2538 121396c
    Залил: msltel

    Онлайн видео А теперь не смотри


    Размер скачиваемого торрента: 3.24 GB (3482991198 Bytes)


    А теперь не смотри/Dont Look Now (1973) BDRip-AVC by msltel
    загрузка...
    Рейтинг →
     (голосов: 1, оценка 4/5, голосовать можно 1 раз )

    Другие торренты по теме:

  • А теперь не смотри / Don't Look Now / 1973 / ПМ, 2 х ПД, АП (Сербин, Михалёв), СТ / BDRip (1080p)


    • Комментарии (0):

      Информация

      Информация

        Посетители, находящиеся в группе Гости, не могут оставлять комментарии в данной новости.

        ↓ Меню



        ↓ Опрос

        А Вы добавили сайт в закладки?
        Да
        Не


        Top 10 за месяц (Фильмы)