.
Авторизация | Регистрация
» » Железная схватка / Robot Overlords (2014) HDRip | iTunes скачать торрент бесплатно




    Железная схватка / Robot Overlords (2014) HDRip | iTunes скачать торрент бесплатно

    Опубликовал: Админ | Дата: 1-10-2015, 05:01 | Просмотров: 131



    Детально о кино
    Русское название: Железная схватка
    Русское название в мировом прокате: Robot Overlords
    Создали в: 2014
    Категория жанра: фантастика, боевик, приключения
    Главный режиссер: Джон Райт

    Актеры
    Джиллиан Андерсон, Бен Кингсли, Каллэн МакОлифф, Тамер Хассан, Джеральдин Джеймс, Стивен Макинтош, Элла Хант, Мило Паркер, Рой Хадд, Крэйг Гарнер

    Сюжет фильма
    Роботы из далекой Галактики захватили Землю. Лондон разрушен, люди живут в постоянном страхе. Выжившим запрещено покидать свои дома. Каждому человеку вмонтирован чип, который в случае неповиновения может превратить его в горстку пепла. И лишь группа молодых друзей решается бросить вызов инопланетным захватчикам и уничтожить необъятный корабль, заслоняющий горизонт вот уже долгие годы.


    Снималось в: Великобритания/British Film Company, British Film Institute (BFI), Northern Ireland Screen, Pinewood Studios Ltd., Tempo Productions Limited, Umbra Telegraph Pictures
    Время просмотра: 01: 29: 49
    Тип перевода: Профессиональное (многоголосное) iTunes
    Файл
    Тип видео: AVI (XviD)
    Качество фильма: HDRip
    Информация о видео: 949 kb/s, 720x304
    Информация о звуке: AC3, 128 kb/s (2 ch)
    Размер скачиваемого торрента: 700 Mb
    Скачать: Сэмпл
    Media Info
    General
    Complete name : Zhele3HaYa.CxBatKa.2014.P.HDRip.700MB.avi
    Format : AVI
    Format/Info : Audio Video Interleave
    File size : 700 MiB
    Duration : 1h 30mn
    Overall bit rate : 1 087 Kbps
    Movie name : Zhele3HaYa.CxBatKa.2014.P.HDRip.700MB
    Director : Rip by toxics aka Photoman
    Writing application : VirtualDubMod 1.5.10.2 (build 2540/release)
    Writing library : VirtualDubMod build 2540/release
    Video
    ID : 0
    Format : MPEG-4 Visual
    Format profile : Advanced Simple@L5
    Format settings, BVOP : 2
    Format settings, QPel : No
    Format settings, GMC : No warppoints
    Format settings, Matrix : Custom
    Codec ID : XVID
    Codec ID/Hint : XviD
    Duration : 1h 30mn
    Bit rate : 949 Kbps
    Width : 720 pixels
    Height : 304 pixels
    Display aspect ratio : 2.35: 1
    Frame rate : 23.976 fps
    Color space : YUV
    Chroma subsampling : 4: 2: 0
    Bit depth : 8 bits
    Scan type : Progressive
    Compression mode : Lossy
    Bits/(Pixel*Frame) : 0.181
    Stream size : 612 MiB (87%)
    Writing library : XviD 1.2.1 (UTC 2008-12-04)
    Audio
    ID : 1
    Format : AC-3
    Format/Info : Audio Coding 3
    Mode extension : CM (complete main)
    Format settings, Endianness : Big
    Codec ID : 2000
    Duration : 1h 30mn
    Bit rate mode : Constant
    Bit rate : 128 Kbps
    Channel(s) : 2 channels
    Channel positions : Front: L R
    Sampling rate : 48.0 KHz
    Compression mode : Lossy
    Stream size : 82.5 MiB (12%)
    Alignment : Split accross interleaves
    Interleave, duration : 42 ms (1.00 video frame)
    Interleave, preload duration : 500 ms
    Скриншоты | повтор:



    Онлайн видео Железная схватка


    Размер скачиваемого торрента: 700.20 MB (734210048 Bytes)

    Железная схватка/Robot Overlords (2014) HDRip | iTunes
    загрузка...
    Рейтинг →
     (голосов: 1, оценка 5/5, голосовать можно 1 раз )

    Другие торренты по теме:



      Комментарии (0):

      Информация

      Информация

        Посетители, находящиеся в группе Гости, не могут оставлять комментарии в данной новости.

        ↓ Меню



        ↓ Опрос

        А Вы добавили сайт в закладки?
        Да
        Не


        Top 10 за неделю (Фильмы)