.
Авторизация | Регистрация
» » Великая тысяча / Eravamo solo mille (2007) DVDRip | P скачать торрент бесплатно




    Великая тысяча / Eravamo solo mille (2007) DVDRip | P скачать торрент бесплатно

    Опубликовал: Админ | Дата: 3-10-2015, 05:01 | Просмотров: 230



    Снималось в: Италия
    Создали в: Cosmo Production
    Категория жанра: Исторический, драма
    Создали в: 2007
    Время просмотра: 2 x ~ 01: 50: 00
    Перевод текста: Профессиональный многоголосый
    Оригинальная аудиодорожка: Итальянская
    Главный режиссер: Стефано Реали

    Актеры
    Даниэле Печчи, Кристиана Филанджьери, Дэвид Коко, Гаэтано Амато, Пино Карузо, Иван Кастильоне, Марина Джулия Кавалли, Ванни Корбеллини, Араба Делль’Утри, Анджело Мареска
    Описание: XIX век. Италия раздроблена на множество мелких государств. В 1860 году Джузеппе Гарибальди собирает отряд, насчитывающий всего тысячу человек, и намеревается совершить то, что уже много веков кажется невыполнимым - вновь сделать Италию единой. Невзирая на кажущуюся невозможность успеха, им это удаётся. Увлекательнейшая история о великом событии объединении Италии, которое прошло в жестокой борьбе всего одной тысячи повстанцев против 18 000 армии острова Сицилия. Но какая революция обходится без героизма и романтизма, который окутывает всех их участников происходящих в картине событий... Маленький человек, Карадо, сын оружейника, проживший среди аристократии, против которой он поднимается лишь из-за случайности и из-за любви к девушке высшего сословия… Ради этой любви он готов последовать за её идеалами и принципами, но и сам того не замечая, он превратится в настоящего героя целого народа — нерешительность и робость придётся отодвинуть подальше и сменить книги на шпагу...

    Исходник: DVD9 R1
    Тип релиза: DVDRip
    Контейнер: AVI
    Информация о видео: 720x400 (1.80: 1), 25 fps, XviD MPEG-4 ~1546 kbps avg, 0.21 bit/pixel
    Информация о звуке 1: 48 kHz, AC3 Dolby Digital, 2/0 (L, R) ch, ~192 kbps (русский)
    Информация о звуке 2: 48 kHz, AC3 Dolby Digital, 2/0 (L, R) ch, ~192 kbps (итальянский)
    MediaInfo

    Общее
    Полное имя : D: ААА2Великая тысяча1 серия.avi
    Формат : AVI
    Формат/Информация : Audio Video Interleave
    Размер файла : 1, 46 Гбайт
    Продолжительность : 1 ч. 47 м.
    Общий поток : 1945 Кбит/сек
    Программа кодирования : VirtualDubMod 1.5.10.2 (build 2540/release)
    Библиотека кодирования : VirtualDubMod build 2540/release
    Видео
    Идентификатор : 0
    Формат : MPEG-4 Visual
    Профиль формата : Advanced Simple@L5
    Параметр BVOP формата : 2
    Параметр QPel формата : Нет
    Параметр GMC формата : Без точки перехода
    Параметр матрицы формата : Default (MPEG)
    Режим смешивания : Сжатый битовый поток
    Идентификатор кодека : XVID
    Идентификатор кодека/Подсказка : XviD
    Продолжительность : 1 ч. 47 м.
    Битрейт : 1547 Кбит/сек
    Ширина : 720 пикселей
    Высота : 400 пикселей
    Соотношение сторон : 16: 9
    Частота кадров : 25, 000 кадров/сек
    Цветовое пространство : YUV
    Субдискретизация насыщенности : 4: 2: 0
    Битовая глубина : 8 бит
    Тип развёртки : Прогрессивная
    Метод сжатия : С потерями
    Бит/(Пиксели*Кадры) : 0.215
    Размер потока : 1, 16 Гбайт (80%)
    Библиотека кодирования : XviD 1.2.1 (UTC 2008-12-04)
    Аудио #1
    Идентификатор : 1
    Формат : AC-3
    Формат/Информация : Audio Coding 3
    Расширение режима : CM (complete main)
    Параметр Endianness формата : Big
    Идентификатор кодека : 2000
    Продолжительность : 1 ч. 47 м.
    Вид битрейта : Постоянный
    Битрейт : 192 Кбит/сек
    Каналы : 2 канала
    Расположение каналов : Front: L R
    Частота : 48, 0 КГц
    Битовая глубина : 16 бит
    Метод сжатия : С потерями
    Задержка видео : 1 с. 0 мс.
    Размер потока : 147 Мбайт (10%)
    Выравнивание : Разделение по промежуткам
    Продолжительность промежутка : 40 мс. (1, 00 видеокадр)
    Время предзагрузки промежутка : 500 мс.
    Аудио #2
    Идентификатор : 2
    Формат : AC-3
    Формат/Информация : Audio Coding 3
    Расширение режима : CM (complete main)
    Параметр Endianness формата : Big
    Идентификатор кодека : 2000
    Продолжительность : 1 ч. 47 м.
    Вид битрейта : Постоянный
    Битрейт : 192 Кбит/сек
    Каналы : 2 канала
    Расположение каналов : Front: L R
    Частота : 48, 0 КГц
    Битовая глубина : 16 бит
    Метод сжатия : С потерями
    Размер потока : 148 Мбайт (10%)
    Выравнивание : Разделение по промежуткам
    Продолжительность промежутка : 40 мс. (1, 00 видеокадр)
    Время предзагрузки промежутка : 500 мс.

    Скриншоты


    Релиз:
    Залил: YArl

    Онлайн видео Великая тысяча


    Размер скачиваемого торрента: 2.92 GB (3135019008 Bytes)

    Великая тысяча/Eravamo solo mille (2007) DVDRip | P
    загрузка...
    Рейтинг →
     (голосов: 1, оценка 3/5, голосовать можно 1 раз )

    Другие торренты по теме:



      Комментарии (0):

      Информация

      Информация

        Посетители, находящиеся в группе Гости, не могут оставлять комментарии в данной новости.

        ↓ Меню



        ↓ Опрос

        А Вы добавили сайт в закладки?
        Да
        Не


        Top 10 за неделю (Фильмы)