.
Авторизация | Регистрация
» » Тактика бега на длинную дистанцию (1978) SATRip от New-Team скачать торрент бесплатно




    Тактика бега на длинную дистанцию (1978) SATRip от New-Team скачать торрент бесплатно

    Опубликовал: Админ | Дата: 4-10-2015, 05:01 | Просмотров: 204



    Снималось в: СССР
    Создали в: Мосфильм
    Категория жанра: военный, драма
    Создали в: 1978
    Время просмотра: 01: 04: 17
    Перевод текста: Не требуется
    Субтитры подготовлены: нет
    Оригинальная аудиодорожка: русский
    Главный режиссер: Евгений Васильев, Рудольф Фрунтов

    Актеры

    Георгий Корольчук, Виктор Зозулин, Эммануил Виторган, Лариса Удовиченко, Владимир Носик, Галина Комарова, Александр Пятков, Виктор Шульгин...
    Полный список актёров
    Описание:
    О подвиге врача Ивана Русака, одного из лучших бегунов страны, который во время второй мировой войны, используя тактику бега на длинной дистанции, отвел фашистскую группировку от партизанского лагеря.




    Источник: DVB
    Качество фильма видео: SATRip
    Тип видео видео: AVI
    Информация о видео: 688x272 (2, 529: 1), 25 fps, XviD ~ 1420 kbps avg, 0.303 bit/pixel
    Информация о звуке: 48 kHz, Dolby Digital AC3 2.0, 192 kbps
    Раздача от:
    MediaInfo

    Общее
    Полное имя : Taktika.bega.na.dlinnuyu.distanciyu.1978.SATRip_New-team_by_AVP_Studio.avi
    Формат : AVI
    Формат/Информация : Audio Video Interleave
    Размер файла : 746 Мбайт
    Продолжительность : 1 ч. 4 м.
    Общий поток : 1622 Кбит/сек
    Программа кодирования : VirtualDubMod 1.5.10.3 | www.virtualdub-fr.org || (build 2550/release)
    Библиотека кодирования : VirtualDubMod build 2550/release
    Видео
    Идентификатор : 0
    Формат : MPEG-4 Visual
    Профиль формата : Advanced Simple@L5
    Параметр BVOP формата : 1
    Параметр QPel формата : Нет
    Параметр GMC формата : Без точки перехода
    Параметр матрицы формата : Выборочная
    Идентификатор кодека : XVID
    Идентификатор кодека/Подсказка : XviD
    Продолжительность : 1 ч. 4 м.
    Битрейт : 1420 Кбит/сек
    Ширина : 688 пикселей
    Высота : 272 пикселя
    Соотношение сторон : 2, 529
    Частота кадров : 25, 000 кадров/сек
    Цветовое пространство : YUV
    Субдискретизация насыщенности : 4: 2: 0
    Битовая глубина : 8 бит
    Тип развёртки : Прогрессивная
    Метод сжатия : С потерями
    Бит/(Пиксели*Кадры) : 0.303
    Размер потока : 653 Мбайт (88%)
    Библиотека кодирования : XviD 73
    Аудио
    Идентификатор : 1
    Формат : AC-3
    Формат/Информация : Audio Coding 3
    Расширение режима : CM (complete main)
    Параметр Endianness формата : Big
    Идентификатор кодека : 2000
    Продолжительность : 1 ч. 4 м.
    Вид битрейта : Постоянный
    Битрейт : 192 Кбит/сек
    Каналы : 2 канала
    Расположение каналов : Front: L R
    Частота : 48, 0 КГц
    Метод сжатия : С потерями
    Размер потока : 88, 3 Мбайт (12%)
    Выравнивание : Разделение по промежуткам
    Продолжительность промежутка : 40 мс. (1, 00 видеокадр)
    Время предзагрузки промежутка : 500 мс

    Скриншоты



    Залил: AVPStudio

    Онлайн видео Тактика бега на длинную дистанцию (1978) SATRip от New


    Размер скачиваемого торрента: 745.53 MB (781744128 Bytes)

    Тактика бега на длинную дистанцию (1978) SATRip от New-Team
    загрузка...
    Рейтинг →
     (голосов: 1, оценка 3/5, голосовать можно 1 раз )

    Другие торренты по теме:



      Комментарии (0):

      Информация

      Информация

        Посетители, находящиеся в группе Гости, не могут оставлять комментарии в данной новости.

        ↓ Меню



        ↓ Опрос

        А Вы добавили сайт в закладки?
        Да
        Не


        Top 10 за неделю (Фильмы)