.
Авторизация | Регистрация
» » Виселица / The Gallows (2015) BDRip 1080p | Звук с TS скачать торрент бесплатно




    Виселица / The Gallows (2015) BDRip 1080p | Звук с TS скачать торрент бесплатно

    Опубликовал: Админ | Дата: 4-10-2015, 05:01 | Просмотров: 157


    Виселица/The Gallows (2015) BDRip 1080p
    Создали в: США/Blumhouse Productions, Management 360, New Line Cinema
    Категория жанра: ужасы, триллер
    Главный режиссер: Трэвис Клафф, Крис Лофинг
    Продюсер: Джейсон Блум, Трэвис Клафф, Бенджамин Форкнер
    Актеры: Риз Мишлер, Пфайфер Браун, Райан Шус, Кэссиди Гиффорд, Трэвис Клафф, Прайс Т. Морган, Тео Буркхардт, Дэвид Херрера, Гэннон Дель Фиерро, Маки Берт

    Описание фильма

    Во время представления одного из школьных спектаклей, загадочным образом погибли много учеников. Руководство школы списало все на несчастный случай. С тех пор прошло немало времени, страшная трагедия почти забыта в сердцах. Студенты небольшого города решают в честь памяти о погибших школьников устроить памятный вечер и сыграть ту же пьесу, которая унесла жизни детей много лет назад. Подготовка шла как по маслу и не предвещала ничего страшного и плохого. В бодром и боевом настрое началось мероприятие.
    Однако, никто и предположить не мог что повторная экранизация картины, приведет к еще большим потерям, страхам и смертям. Под угрозой теперь не только участники пьесы, но и весь коллектив университета и зрители. Чем закончатся загадочные события двадцатилетней давности, ведь не даром говорят, что некоторые вещи лучше не шевелить...

    Время просмотра: 01: 20: 47
    Качество фильма: BDRip (1080p)
    Перевод текста: профессиональный (полное дублирование) (Звук с TS)
    Субтитры: отсутствуют
    Информация о видео: MPEG-4 AVC/H.264, 1920x1080 (16: 9), 9 043 kbps, 23.976 fps, 0.182 b/px
    Информация о звуке # 1: АС3, 2 ch, 192 kbps, 48 000 Hz - DUB - Звук с TS
    Информация о звуке # 2: АС3, 6 ch, 640 kbps, 48 000 Hz - Original - English
    MediaInfo
    Общее
    Уникальный идентификатор : 238100627627483649331761852028444211454 (0xB320834A4D724501A7774852B3BFF8FE)
    Полное имя : E: The Gallows (2015) BDRip 1080p.mkv
    Формат : Matroska
    Версия формата : Version 2
    Размер файла : 5, 57 Гбайт
    Продолжительность : 1 ч. 20 м.
    Общий поток : 9872 Кбит/сек
    Дата кодирования : UTC 2015-10-03 04: 03: 04
    Программа кодирования : mkvmerge v8.3.0 (;Over the Horizon;) 64bit
    Библиотека кодирования : libebml v1.3.1 + libmatroska v1.4.2
    DURATION : 01: 20: 47.104000000
    NUMBER_OF_FRAMES : 151472
    NUMBER_OF_BYTES : 387768320
    _STATISTICS_WRITING_APP : mkvmerge v8.3.0 (;Over the Horizon;) 64bit
    _STATISTICS_WRITING_DATE_UTC : 2015-10-03 04: 03: 04
    _STATISTICS_TAGS : BPS DURATION NUMBER_OF_FRAMES NUMBER_OF_BYTES
    Видео
    Идентификатор : 2
    Формат : AVC
    Формат/Информация : Advanced Video Codec
    Профиль формата : High@L4.1
    Параметр CABAC формата : Да
    Параметр ReFrames формата : 4 кадра
    Идентификатор кодека : V_MPEG4/ISO/AVC
    Продолжительность : 1 ч. 20 м.
    Битрейт : 9043 Кбит/сек
    Ширина : 1920 пикселей
    Высота : 1080 пикселей
    Соотношение сторон : 16: 9
    Режим частоты кадров : Постоянный
    Частота кадров : 23, 976 кадра/сек
    Цветовое пространство : YUV
    Субдискретизация насыщенности : 4: 2: 0
    Битовая глубина : 8 бит
    Тип развёртки : Прогрессивная
    Бит/(Пиксели*Кадры) : 0.182
    Размер потока : 4, 99 Гбайт (90%)
    Библиотека кодирования : x264 core 148 r2597 e86f3a1
    Настройки программы : cabac=1/ref=4/deblock=1: 0: 0/analyse=0x3: 0x133/me=umh/subme=7/psy=1/psy_rd=1.00: 0.00/mixed_ref=1/me_range=16/chroma_me=1/trellis=1/8x8dct=1/cqm=0/deadzone=21, 11/fast_pskip=0/chroma_qp_offset=-2/threads=18/lookahead_threads=3/sliced_threads=0/nr=0/decimate=1/interlaced=0/bluray_compat=0/constrained_intra=0/bframes=3/b_pyramid=2/b_adapt=1/b_bias=0/direct=1/weightb=1/open_gop=0/weightp=2/keyint=250/keyint_min=23/scenecut=40/intra_refresh=0/rc_lookahead=40/rc=2pass/mbtree=1/bitrate=9043/ratetol=1.0/qcomp=0.60/qpmin=0/qpmax=69/qpstep=4/cplxblur=20.0/qblur=0.5/ip_ratio=1.40/aq=1: 1.00
    Язык : English
    Default : Да
    Forced : Нет
    Аудио #1
    Идентификатор : 1
    Формат : AC-3
    Формат/Информация : Audio Coding 3
    Расширение режима : CM (complete main)
    Параметр Endianness формата : Big
    Идентификатор кодека : A_AC3
    Продолжительность : 1 ч. 20 м.
    Вид битрейта : Постоянный
    Битрейт : 192 Кбит/сек
    Каналы : 2 канала
    Расположение каналов : Front: L R
    Частота : 48, 0 КГц
    Метод сжатия : С потерями
    Размер потока : 111 Мбайт (2%)
    Язык : Russian
    Default : Да
    Forced : Нет
    DURATION : 01: 20: 47.017000000
    NUMBER_OF_FRAMES : 116212
    NUMBER_OF_BYTES : 5476210805
    _STATISTICS_WRITING_APP : mkvmerge v8.3.0 (;Over the Horizon;) 64bit
    _STATISTICS_WRITING_DATE_UTC : 2015-10-03 04: 03: 04
    _STATISTICS_TAGS : BPS DURATION NUMBER_OF_FRAMES NUMBER_OF_BYTES
    Аудио #2
    Идентификатор : 3
    Формат : AC-3
    Формат/Информация : Audio Coding 3
    Расширение режима : CM (complete main)
    Параметр Endianness формата : Big
    Идентификатор кодека : A_AC3
    Продолжительность : 1 ч. 20 м.
    Вид битрейта : Постоянный
    Битрейт : 640 Кбит/сек
    Каналы : 6 каналов
    Расположение каналов : Front: L C R, Side: L R, LFE
    Частота : 48, 0 КГц
    Метод сжатия : С потерями
    Размер потока : 370 Мбайт (6%)
    Язык : English
    Default : Нет
    Forced : Нет
    Меню
    00: 00: 00.000 : en: 00: 00: 00.000
    00: 10: 22.038 : en: 00: 10: 22.038
    00: 19: 19.909 : en: 00: 19: 19.909
    00: 30: 34.833 : en: 00: 30: 34.833
    00: 41: 13.680 : en: 00: 41: 13.680
    00: 52: 14.965 : en: 00: 52: 14.965
    01: 00: 59.072 : en: 01: 00: 59.072
    01: 09: 27.580 : en: 01: 09: 27.580
    01: 15: 47.543 : en: 01: 15: 47.543
    Скриншоты


    Онлайн видео Виселица


    Размер скачиваемого торрента: 5.57 GB (5981646395 Bytes)

    Виселица/The Gallows (2015) BDRip 1080p | Звук с TS
    загрузка...
    Рейтинг →
     (голосов: 1, оценка 3/5, голосовать можно 1 раз )

    Другие торренты по теме:

  • Виселица / The Gallows (2015) HDRip | Звук с TS скачать торрент бесплатно
  • Виселица / The Gallows (2015) HDRip | Чистый звук скачать торрент бесплатно
  • Виселица / The Gallows (2015) BDRemux 1080p от NovaLan скачать торрент бесплатно
  • Виселица / The Gallows (2015) DVD-9 от NovaLan | D скачать торрент бесплатно


    • Комментарии (0):

      Информация

      Информация

        Посетители, находящиеся в группе Гости, не могут оставлять комментарии в данной новости.

        ↓ Меню



        ↓ Опрос

        А Вы добавили сайт в закладки?
        Да
        Не


        Top 10 за неделю (Фильмы)