.
Авторизация | Регистрация
Хочешь лучшие торренты? Добавь свой email!
Добавить




В степи (1950) DVDRip от New-Team торрент скачать бесплатно

Опубликовал: Админ | Дата: 5-10-2015, 05:01 | Просмотров: 173



Снималось в: СССР
Создали в: К/ст им.Горького
Категория жанра: короткометражка, драма
Создали в: 1950
Время просмотра: 00: 40: 38
Перевод текста: Не требуется
Субтитры подготовлены: нет
Оригинальная аудиодорожка: русский
Главный режиссер: Борис Бунеев, А. Ульянцев

Актеры

Борис Елисеев, Андрей Тарасов, Наталья Защипина, Володя Феоктистов, Анатолий Керби, Юрий Кононов, Марк Бернес, Всеволод Санаев, Павел Волков, Юрий Саранцев, Валентина Телегина...
Полный список актёров
Описание:
По повести Петра Павленко Степное солнце.
Пионер Сережа Емельянов, ранее никогда не бывавший в степи, приезжает с отцом, шофером, на уборку урожая. Его ранние представления о колхозной жизни, как о чем-то ужасно скучном и ненужном, под впечатлением проделанной работы меняются - и мальчик с большой грустью расстается со степью и природой, которую полюбил на всю жизнь.
Изначально стереофильм.



Источник: VHS
Качество фильма видео: VHSRip
Тип видео видео: AVI
Информация о видео: 688x512 (4: 3), 25 fps, XviD ~ 2359 kbps avg, 0.268 bit/pixel
Информация о звуке: 48 kHz, Dolby Digital AC3 2.0, 192 kbps
Раздача от:
MediaInfo

Общее
Полное имя : V.stepi.1950.VHSRip_New-team_by_AVP_Studio.avi
Формат : AVI
Формат/Информация : Audio Video Interleave
Размер файла : 744 Мбайт
Продолжительность : 40 м.
Общий поток : 2561 Кбит/сек
Программа кодирования : VirtualDubMod 1.5.10.3 | www.virtualdub-fr.org || (build 2550/release)
Библиотека кодирования : VirtualDubMod build 2550/release
Видео
Идентификатор : 0
Формат : MPEG-4 Visual
Профиль формата : Advanced Simple@L5
Параметр BVOP формата : 1
Параметр QPel формата : Нет
Параметр GMC формата : Без точки перехода
Параметр матрицы формата : Выборочная
Идентификатор кодека : XVID
Идентификатор кодека/Подсказка : XviD
Продолжительность : 40 м.
Битрейт : 2359 Кбит/сек
Ширина : 688 пикселей
Высота : 512 пикселей
Соотношение сторон : 4: 3
Частота кадров : 25, 000 кадров/сек
Цветовое пространство : YUV
Субдискретизация насыщенности : 4: 2: 0
Битовая глубина : 8 бит
Тип развёртки : Прогрессивная
Метод сжатия : С потерями
Бит/(Пиксели*Кадры) : 0.268
Размер потока : 686 Мбайт (92%)
Библиотека кодирования : XviD 73
Аудио
Идентификатор : 1
Формат : AC-3
Формат/Информация : Audio Coding 3
Расширение режима : CM (complete main)
Параметр Endianness формата : Big
Идентификатор кодека : 2000
Продолжительность : 40 м.
Вид битрейта : Постоянный
Битрейт : 192 Кбит/сек
Каналы : 2 канала
Расположение каналов : Front: L R
Частота : 48, 0 КГц
Метод сжатия : С потерями
Размер потока : 55, 8 Мбайт (7%)
Выравнивание : Разделение по промежуткам
Продолжительность промежутка : 40 мс. (1, 00 видеокадр)
Время предзагрузки промежутка : 500 мс

Скриншоты



Залил: AVPStudio

Онлайн видео В степи (1950) DVDRip от New


Размер скачиваемого торрента: 744.33 MB (780490752 Bytes)

В степи (1950) DVDRip от New-Team
загрузка...
Рейтинг →
 (голосов: 1, оценка 4/5, голосовать можно 1 раз )

Другие торренты по теме:

  • Maestro - По степи ковыльной
  • Выстрел в степи / 1990 / РУ / TVRip
  • Хуторок в степи / 1970 / РУ / VHSRip


    • Комментарии (0):

      Информация

      Информация

        Посетители, находящиеся в группе Гости, не могут оставлять комментарии в данной новости.

        ↓ Меню



        ↓ Опрос

        А Вы добавили сайт в закладки?
        Да
        Не


        Top 10 за месяц (Фильмы)