.
Авторизация | Регистрация




Нюхач (2015) WEB-DLRip-AVC скачать торрент бесплатно

Опубликовал: Админ | Дата: 8-10-2015, 16:46 | Просмотров: 194



Детально о кино
Русское название в мировом прокате: Нюхач
Создали в: 2015
Категория жанра: Детектив, драма, криминал
Главный режиссер: Артем Литвиненко

Актеры
Кирилл Кяро, Иван Оганесян, Николай Чиндяйкин, Агне Грудите, Мария Аниканова, Нина Гогаева, Павел Кузьмин, Сергей Юшкевич, Игорь Ботвин, Александр Фисенко, Денис Мартынов (II), Алексей Зорин, Станислав Москвин, Вадим Лялько, Владимир Коваль (II), Татьяна Комарова, Елена Сикорская, Александр Зиневич, Сергей Лесков, Олег Ким (IV), Виктор Щур, Артём Червоношеенко, Виталий Копилец, Игорь Дяченко, Александр Мартыщенко

Сюжет фильма

Каждое преступление имеет свой запах. В новом сезон любимого сериалае захватывающего сериала Нюхач и Виктор Лебедев продолжают служить правосудию. Дар Нюхача и опыт Лебедева делают их тандем сильным и очень эффективным. Но им приходится сталкиваться не только с рядовыми преступниками: за каждым шагом Нюхача и Виктора следит таинственная организация, и им приходится распутывать целую сеть из тайн, загадок и преступлений. Сумеет ли их дружба выдержать все испытания? И смогут ли они победить таинственного врага?

Снималось в: Украина, Россия, Film.ua Production
Время просмотра: 8 х ~ 00: 53: 00
Язык: Русский
Файл
Качество фильма: WEB-DLRip-AVC
Информация о видео: MPEG-4 AVC, ~ 1100 Кбит/с, 1024x576, 25 кадр/с
Информация о звуке: AC3, 2 ch, 192 Кбит/с

M/I
General
Unique ID : 160899801158127922189895101179012082448 (0x790C2CACA9E89B3B44181E9855206B10)
Complete name : D: КИНОсериалы_2Нюхач-2 8 (2015) WEB-DLRIP_AVCNjuhach-2.(01.seriya.iz.08).2015.WEB-DLRIP_AVC.-=DoMiNo=-.mkv
Format : Matroska
Format version : Version 4/Version 2
File size : 581 MiB
Duration : 58mn 46s
Overall bit rate : 1 382 Kbps
Writing application : XviD4PSP 7.0.173
Writing library : Lavf56.25.101
ENCODING_INFO : MATROSKA, WEBM MKV/H264 X264 CRF 19.0 Custom/AC3 COPY
Video
ID : 1
Format : AVC
Format/Info : Advanced Video Codec
Format profile : High@L4.1
Format settings, CABAC : Yes
Format settings, ReFrames : 12 frames
Codec ID : V_MPEG4/ISO/AVC
Duration : 58mn 46s
Bit rate : 1 163 Kbps
Width : 1 024 pixels
Height : 576 pixels
Display aspect ratio : 16: 9
Frame rate mode : Constant
Frame rate : 25.000 fps
Color space : YUV
Chroma subsampling : 4: 2: 0
Bit depth : 8 bits
Scan type : Progressive
Bits/(Pixel*Frame) : 0.079
Stream size : 489 MiB (84%)
Writing library : x264 core 148 r2597M e86f3a1
Encoding settings : cabac=1/ref=12/deblock=1: -3: -3/analyse=0x3: 0x133/me=umh/subme=10/psy=1/psy_rd=1.00: 0.10/mixed_ref=1/me_range=32/chroma_me=1/trellis=2/8x8dct=1/cqm=0/deadzone=21, 11/fast_pskip=0/chroma_qp_offset=-3/threads=5/lookahead_threads=1/sliced_threads=0/nr=0/decimate=1/interlaced=0/bluray_compat=0/constrained_intra=0/bframes=11/b_pyramid=2/b_adapt=2/b_bias=0/direct=1/weightb=1/open_gop=0/weightp=2/keyint=250/keyint_min=25/scenecut=40/intra_refresh=0/rc=crf/mbtree=0/crf=19.0/qcomp=0.60/qpmin=19/qpmax=69/qpstep=4/ip_ratio=1.40/pb_ratio=1.30/aq=1: 1.00
Language : Russian
Default : Yes
Forced : Yes
Audio
ID : 2
Format : AC-3
Format/Info : Audio Coding 3
Mode extension : CM (complete main)
Format settings, Endianness : Big
Codec ID : A_AC3
Duration : 58mn 46s
Bit rate mode : Constant
Bit rate : 192 Kbps
Channel(s) : 2 channels
Channel positions : Front: L R
Sampling rate : 48.0 KHz
Bit depth : 32 bits
Compression mode : Lossy
Stream size : 80.7 MiB (14%)
Language : Russian
Default : Yes
Forced : Yes

Размер скачиваемого торрента: 3.81 GB (4094079898 Bytes)

Нюхач (2015) WEB-DLRip-AVC
загрузка...
Рейтинг →
 (голосов: 1, оценка 4/5, голосовать можно 1 раз )

Другие торренты по теме:

  • Нюхач (2013) SATRip от GeneralFilm торрент скачать бесплатно
  • Нюхач (2013) SATRip от Simka BigFANGroup торрент скачать бесплатно
  • Нюхач (2013) SATRip от Simka amp BigFANGroup торрент скачать бесплатно
  • Нюхач (2013) SATRip | КПК от MediaClub скачать через торрент бесплатно
  • Нюхач (2013) HDTVRip | Nikolspup скачать через торрент бесплатно
  • Нюхач (2013) HDTVRip от MediaClub скачать через торрент бесплатно
  • Нюхач (2013) WEB-DLRip от Generalfilm торрент скачать бесплатно
  • Нюхач (2013) WEB-DLRip от Generalfilm | КПК скачать через торрент бесплатно


    • Комментарии (0):

      Информация

      Информация

        Посетители, находящиеся в группе Гости, не могут оставлять комментарии в данной новости.

        ↓ Меню



        ↓ Опрос

        А Вы добавили сайт в закладки?
        Да
        Не


        Top 10 за неделю (Фильмы)