.
Авторизация | Регистрация
» » Пэн: Путешествие в Нетландию / Pan (2015) CAMRip скачать торрент бесплатно




    Пэн: Путешествие в Нетландию / Pan (2015) CAMRip скачать торрент бесплатно

    Опубликовал: Админ | Дата: 12-10-2015, 05:01 | Просмотров: 266



    Детально о кино
    Русское название: Пэн: Путешествие в Нетландию
    Русское название в мировом прокате: Pan
    Создали в: 2015
    Категория жанра: фэнтези, семейный, приключения
    Главный режиссер: Джо Райт

    Актеры
    Хью Джекман, Леви Миллер, Гаррет Хедлунд, Руни Мара, Аманда Сайфред, Кара Делевинь, Леви Миллер, Нонсо Анози, Пол Кэй, Эмиральд Феннел, Адиль Ахтар

    Сюжет фильма
    История о сироте, который попал в волшебную Нетландию, где его поджидали опасные приключения. Там он понял, что его судьба – стать героем, который навсегда останется известен под именем Питер Пэн.


    Снималось в: США, Великобритания, Австралия
    Время просмотра: 01: 42: 57
    Тип перевода: Дублированное
    Файл
    Тип видео: AVI (XviD)
    Качество фильма: CAMRip
    Информация о видео: 899 kb/s, 720x400
    Информация о звуке: MP3, 128 kb/s (2 ch)
    Размер скачиваемого торрента: 760 Mb
    Скачать: Сэмпл
    Media Info
    General
    Complete name : P3n.2015.D.CAMRip.760Mb.avi
    Format : AVI
    Format/Info : Audio Video Interleave
    File size : 766 MiB
    Duration : 1h 42mn
    Overall bit rate : 1 040 Kbps
    Writing application : Lavf56.1.100
    Video
    ID : 0
    Format : MPEG-4 Visual
    Format profile : Simple@L1
    Format settings, BVOP : No
    Format settings, QPel : No
    Format settings, GMC : No warppoints
    Format settings, Matrix : Default (H.263)
    Codec ID : XVID
    Codec ID/Hint : XviD
    Duration : 1h 42mn
    Bit rate : 899 Kbps
    Width : 720 pixels
    Height : 400 pixels
    Display aspect ratio : 16: 9
    Frame rate : 29.970 fps
    Color space : YUV
    Chroma subsampling : 4: 2: 0
    Bit depth : 8 bits
    Scan type : Progressive
    Compression mode : Lossy
    Bits/(Pixel*Frame) : 0.104
    Stream size : 662 MiB (86%)
    Writing library : Lavc56.0.101
    Audio
    ID : 1
    Format : MPEG Audio
    Format version : Version 1
    Format profile : Layer 3
    Mode : Joint stereo
    Mode extension : MS Stereo
    Codec ID : 55
    Codec ID/Hint : MP3
    Duration : 1h 42mn
    Bit rate mode : Constant
    Bit rate : 128 Kbps
    Channel(s) : 2 channels
    Sampling rate : 44.1 KHz
    Compression mode : Lossy
    Stream size : 94.3 MiB (12%)
    Alignment : Aligned on interleaves
    Interleave, duration : 26 ms (0.78 video frame)
    Interleave, preload duration : 78 ms
    Writing library : LAME3.99.5ЄЄЄЄЄЄЄЄЄ
    Скриншоты | повтор:



    Онлайн видео Пэн: Путешествие в Нетландию


    Размер скачиваемого торрента: 766.00 MB (803207242 Bytes)

    Пэн: Путешествие в Нетландию/Pan (2015) CAMRip
    загрузка...
    Рейтинг →
     (голосов: 1, оценка 5/5, голосовать можно 1 раз )

    Другие торренты по теме:

  • Пэн: Путешествие в Нетландию / Pan (2015) WEBRip 1080p | Трейлер скачать торрент бесплатно
  • Пэн: Путешествие в Нетландию / Pan (2015) HDRip | iTunes скачать торрент бесплатно
  • Пэн: Путешествие в Нетландию / Pan (2015) BDRip-AVC | iTunes скачать торрент бесплатно
  • Пэн: Путешествие в Нетландию / Pan (2015) BDRip 720p от Scarabey | iTunes скачать торрент бесплатно
  • Пэн: Путешествие в Нетландию / Pan (2015) HDRip от Scarabey | iTunes скачать торрент бесплатно
  • Пэн: Путешествие в Нетландию / Pan (2015) BDRip 1080p от HDReactor | Лицензия скачать торрент бесплатно
  • Пэн: Путешествие в Нетландию / Pan (2015) BDRip-AVC от HELLYWOOD | Лицензия скачать торрент бесплатно
  • Пэн: Путешествие в Нетландию / Pan (2015) BDRip 720p | Лицензия скачать торрент бесплатно


    • Комментарии (0):

      Информация

      Информация

        Посетители, находящиеся в группе Гости, не могут оставлять комментарии в данной новости.

        ↓ Меню



        ↓ Опрос

        А Вы добавили сайт в закладки?
        Да
        Не


        Top 10 за неделю (Фильмы)