.
Авторизация | Регистрация
Хочешь лучшие торренты? Добавь свой email!
Добавить




Гости / The Visitors (1972) DVD9 | P торрент скачать бесплатно

Опубликовал: Админ | Дата: 13-10-2015, 05:01 | Просмотров: 176



Детально о кино
Русское название: Гости
Русское название в мировом прокате: The Visitors
Создали в: 1972
Категория жанра: драма, криминал
Главный режиссер: Элиа Казан

Актеры
Патрик МакВей, Патриция Джойс, Джеймс Вудс, Стив Рейлсбэк, Чико Мартинес

Сюжет фильма

Билл, Марта и их маленький сын проводят воскресенье в загородном доме, куда неожиданно приезжают бывшие сослуживцы Билла по Вьетнаму. После Вьетнама они попали под трибунал, и как им кажется не без помощи Билла. Теперь они приехали мстить.

Снималось в: США
Киностудия: Home Free
Время просмотра: 85 мин./01: 25
Перевод текста: профессиональный (многоголосый, закадровый)
Файл
Кодек для видео: MPEG2
Качество фильма: DVD9 Настроение Видео
Информация о видео: PAL 16: 9 (720x576@1024x576) VBR 6957 Kbps, 25.000 fps
Информация о звуке: Dolby AC3, 6 ch, 48.0 KHz, 448 Kbps (русский, английский)
Субтитры: отсутствуют
MediaInfo
Общее
Полное имя : D: THE_VISITORSVIDEO_TSVTS_04_1.VOB
Формат : MPEG-PS
Размер файла : 1024 Мбайт
Продолжительность : 17 м.
Режим общего битрейта : Переменный
Общий поток : 8013 Кбит/сек
Видео
Идентификатор : 224 (0xE0)
Формат : MPEG Video
Версия формата : Version 2
Профиль формата : Main@Main
Параметр BVOP формата : Да
Параметр матрицы формата : Выборочная
Параметр GOP формата : M=3, N=15
Структура изображения : Frame
Продолжительность : 17 м.
Вид битрейта : Переменный
Битрейт : 6957 Кбит/сек
Ширина : 720 пикселей
Высота : 576 пикселей
Соотношение сторон : 16: 9
Частота кадров : 25, 000 кадров/сек
Стандарт вещания : PAL
Цветовое пространство : YUV
Субдискретизация насыщенности : 4: 2: 0
Битовая глубина : 8 бит
Тип развёртки : Чересстрочная
Порядок развёртки : Верхнее поле первое
Метод сжатия : С потерями
Бит/(Пиксели*Кадры) : 0.671
Временной код первого кадра : 00: 00: 00: 00
Оригинал временного кода : Group of pictures t_head
GOP, открыто/закрыто : Закрыто
Размер потока : 889 Мбайт (87%)
Аудио #1
Идентификатор : 189 (0xBD)-128 (0x80)
Формат : AC-3
Формат/Информация : Audio Coding 3
Расширение режима : CM (complete main)
Параметр Endianness формата : Big
Режим смешивания : DVD-Video
Продолжительность : 17 м.
Вид битрейта : Постоянный
Битрейт : 448 Кбит/сек
Каналы : 6 каналов
Расположение каналов : Front: L C R, Side: L R, LFE
Частота : 48, 0 КГц
Метод сжатия : С потерями
Размер потока : 57, 2 Мбайт (6%)
Аудио #2
Идентификатор : 189 (0xBD)-129 (0x81)
Формат : AC-3
Формат/Информация : Audio Coding 3
Расширение режима : CM (complete main)
Параметр Endianness формата : Big
Режим смешивания : DVD-Video
Продолжительность : 17 м.
Вид битрейта : Постоянный
Битрейт : 448 Кбит/сек
Каналы : 6 каналов
Расположение каналов : Front: L C R, Side: L R, LFE
Частота : 48, 0 КГц
Метод сжатия : С потерями
Размер потока : 57, 2 Мбайт (6%)
Меню
Скриншоты


Залил: carisha
Размер скачиваемого торрента: 5.88 GB (6314188800 Bytes)

Гости/The Visitors (1972) DVD9 | P
загрузка...
Рейтинг →
 (голосов: 1, оценка 3/5, голосовать можно 1 раз )

Другие торренты по теме:

  • Гости / The Visitors (1972) DVDRip от Кинорадиомагия


    • Комментарии (0):

      Информация

      Информация

        Посетители, находящиеся в группе Гости, не могут оставлять комментарии в данной новости.

        ↓ Меню



        ↓ Опрос

        А Вы добавили сайт в закладки?
        Да
        Не


        Top 10 за месяц (Фильмы)