.
Авторизация | Регистрация
Хочешь лучшие торренты? Добавь свой email!
Добавить
» » Секрет Зоар / The Zohar Secret (2015) WEBRip 720p торрент скачать бесплатно




    Секрет Зоар / The Zohar Secret (2015) WEBRip 720p торрент скачать бесплатно

    Опубликовал: Админ | Дата: 14-10-2015, 05:01 | Просмотров: 164



    Детально о кино
    Русское название: Секрет Зоар
    Русское название в мировом прокате: The Zohar Secret
    Создали в: 2015
    Категория жанра: фантастика, драма, комедия
    Главный режиссер: Владэк Занковски

    Актеры
    Александр Демидов, Ирина Баринова, Генри Давид, Рой Мирон, Олег Фендюра, Светлана Демидов, Сергей Попов, Игал Резник, Юрий Ядыкин, Владимир Золин

    Сюжет фильма

    В руки Макса попал древний свиток, в котором была описана вся история человечества от начала и до самого конца. Попытавшись воспользоваться этой информацией в собственных интересах, Макс запускает механизм, который начинает влиять на его жизнь.

    Снималось в: Израиль, США, Украина, Россия, Испания
    Время просмотра: 02: 03: 49
    Язык: руский
    Файл
    Кодек для видео: AVC
    Качество фильма: WEBRip 720p
    Информация о видео: ~2 016 Кбит/с, 1280x536, 24 кадра/с
    Информация о звуке: MP3, 2 ch, 128 Kbps
    Субтитры: Вшитые - неотключаемые - на иностранную речь

    M/I
    General
    Unique ID : 179769594414024234501078003814611103000 (0x873E5D4FB0C9E892B8C8D80B39F92D18)
    Complete name : D: Секрет Зоар The Zohar Secret.mkv
    Format : Matroska
    Format version : Version 4/Version 2
    File size : 1.89 GiB
    Duration : 2h 3mn
    Overall bit rate : 2 188 Kbps
    Encoded date : UTC 2015-10-13 13: 31: 48
    Writing application : mkvmerge v8.3.0 (;Over the Horizon;) 64bit
    Writing library : libebml v1.3.1 + libmatroska v1.4.2
    DURATION : 02: 03: 49.172000000
    NUMBER_OF_FRAMES : 284398
    NUMBER_OF_BYTES : 118866755
    _STATISTICS_WRITING_APP : mkvmerge v8.3.0 (;Over the Horizon;) 64bit
    _STATISTICS_WRITING_DATE_UT : 2015-10-13 13: 31: 48
    _STATISTICS_TAGS : BPS DURATION NUMBER_OF_FRAMES NUMBER_OF_BYTES
    Video
    ID : 1
    Format : AVC
    Format/Info : Advanced Video Codec
    Format profile : Baseline@L3.1
    Format settings, CABAC : No
    Format settings, ReFrames : 1 frame
    Format settings, GOP : M=1, N=12
    Codec ID : V_MPEG4/ISO/AVC
    Duration : 2h 3mn
    Bit rate : 2 016 Kbps
    Width : 1 280 pixels
    Height : 536 pixels
    Display aspect ratio : 2.40: 1
    Frame rate mode : Constant
    Frame rate : 24.000 fps
    Color space : YUV
    Chroma subsampling : 4: 2: 0
    Bit depth : 8 bits
    Scan type : Progressive
    Bits/(Pixel*Frame) : 0.122
    Stream size : 1.74 GiB (92%)
    Language : English
    Default : Yes
    Forced : No
    Audio
    ID : 2
    Format : MPEG Audio
    Format version : Version 1
    Format profile : Layer 3
    Mode : Joint stereo
    Codec ID : A_MPEG/L3
    Codec ID/Hint : MP3
    Duration : 2h 3mn
    Bit rate mode : Constant
    Bit rate : 128 Kbps
    Channel(s) : 2 channels
    Sampling rate : 44.1 KHz
    Compression mode : Lossy
    Stream size : 113 MiB (6%)
    Language : Russian
    Default : Yes
    Forced : No


    Онлайн видео Секрет Зоар


    Размер скачиваемого торрента: 1.89 GB (2031464068 Bytes)

    Секрет Зоар/The Zohar Secret (2015) WEBRip 720p
    загрузка...
    Рейтинг →
     (голосов: 1, оценка 3/5, голосовать можно 1 раз )

    Другие торренты по теме:

  • Секрет Зоар / The Zohar Secret (2015) WEBRip от torrentfilm


    • Комментарии (0):

      Информация

      Информация

        Посетители, находящиеся в группе Гости, не могут оставлять комментарии в данной новости.

        ↓ Меню



        ↓ Опрос

        А Вы добавили сайт в закладки?
        Да
        Не


        Top 10 за месяц (Фильмы)