.
Авторизация | Регистрация
» » Ярость / Slow Burn (2005) BDRip-AVC | P скачать торрент бесплатно




    Ярость / Slow Burn (2005) BDRip-AVC | P скачать торрент бесплатно

    Опубликовал: Админ | Дата: 14-10-2015, 05:01 | Просмотров: 188


    Ярость/Slow Burn (2005) BDRip-AVC

    Создали в: США, Bonnie Timmermann Productions, GreeneStreet Films Inc., Longfellow Pictures, Sidney Kimmel Entertainment, Intelligent Creatures Inc., Intrigue
    Категория жанра: Триллер, Драма
    Главный режиссер: Уэйн Бич
    Актеры: Рэй Лиотта, ЭлЭл Кул Джей, Джолин Блэлок, Мекхай Файфер, Гай Торри, Тэй Диггз, Чиветел Эджиофор, Брюс МакГилл, Джо Грифази, Фрэнк Скорпион, Донни Фальсетти, Барбара Александер, Ричард Джатрас, Артур Холден, Фишер Стивенс, Пьер Гэйдж, Кристиан Пол, Омари Ньютон

    Описание фильма

    У окружного прокурора Форда Коула большие проблемы. Его помощница, красотка Нора Тиммер, признаётся, что убила человека. Однако она утверждает, что это была самозащита. Ситуация усугубляется, когда в полицию является таинственный незнакомец Лютер Пинкс с рассказом, явно противоречащим показаниям Норы. Теперь на карту поставлена не только карьера, но, возможно, и жизнь Форда, и у него есть лишь несколько часов, чтобы понять, где правда, а где ложь, в этой истории, где помимо Норы замешан некий продавец музыкального магазина и могущественный босс одной криминальной группировки.

    Дата мировой премьеры: 13 сентября 2005
    Дата выхода DVD/Blu-ray релиза: 24 июля 2007, West Video
    Релиз подготовил: FAGOT100(NNM-CLUB)
    Время просмотра: 01: 28: 57
    Качество фильма видео: BDRip-AVC
    Перевод текста: Профессиональный (многоголосый, закадровый)
    Субтитры: отсутствуют
    Информация о видео: AVC, 1024x576 (16: 9), 25.000 fps, 1 967 Kbps (0.133 bit/pixel)
    Информация о звуке: AC-3, 48.0 KHz, 6 ch, 384 Kbps, CBR
    Скриншоты:

    Mediainfo:

    Формат : Matroska
    Версия формата : Version 2
    Размер файла : 1, 46 Гбайт
    Продолжительность : 1 ч. 28 м.
    Общий поток : 2351 Кбит/сек
    Дата кодирования : UTC 2014-09-22 02: 17: 53
    Программа кодирования : mkvmerge v5.3.0 (;I could have danced;) built on Feb 9 2012 10: 38: 07
    Библиотека кодирования : libebml v1.2.3 + libmatroska v1.3.0
    Attachment : Yes
    Видео
    Идентификатор : 1
    Формат : AVC
    Формат/Информация : Advanced Video Codec
    Профиль формата : High@L4.1
    Параметр CABAC формата : Да
    Параметр ReFrames формата : 9 кадров
    Идентификатор кодека : V_MPEG4/ISO/AVC
    Продолжительность : 1 ч. 28 м.
    Битрейт : 1967 Кбит/сек
    Ширина : 1024 пикселя
    Высота : 576 пикселей
    Соотношение сторон : 16: 9
    Режим частоты кадров : Постоянный
    Частота кадров : 25, 000 кадров/сек
    Цветовое пространство : YUV
    Субдискретизация насыщенности : 4: 2: 0
    Битовая глубина : 8 бит
    Тип развёртки : Прогрессивная
    Бит/(Пиксели*Кадры) : 0.133
    Размер потока : 1, 19 Гбайт (82%)
    Библиотека кодирования : x264 core 142 r2431 ac76440
    Настройки программы : cabac=1/ref=9/deblock=1: -1: -1/analyse=0x3: 0x133/me=umh/subme=10/psy=1/psy_rd=1.00: 0.00/mixed_ref=1/me_range=32/chroma_me=1/trellis=2/8x8dct=1/cqm=0/deadzone=21, 11/fast_pskip=1/chroma_qp_offset=-2/threads=12/lookahead_threads=2/sliced_threads=0/nr=0/decimate=1/interlaced=0/bluray_compat=0/constrained_intra=0/bframes=9/b_pyramid=2/b_adapt=2/b_bias=0/direct=3/weightb=1/open_gop=0/weightp=2/keyint=250/keyint_min=25/scenecut=40/intra_refresh=0/rc=2pass/mbtree=0/bitrate=1967/ratetol=1.0/qcomp=0.60/qpmin=0/qpmax=69/qpstep=4/cplxblur=20.0/qblur=0.5/ip_ratio=1.40/pb_ratio=1.30/aq=1: 1.00
    Язык : English
    Default : Да
    Forced : Нет
    Аудио
    Идентификатор : 2
    Формат : AC-3
    Формат/Информация : Audio Coding 3
    Расширение режима : CM (complete main)
    Параметр Endianness формата : Big
    Идентификатор кодека : A_AC3
    Продолжительность : 1 ч. 28 м.
    Вид битрейта : Постоянный
    Битрейт : 384 Кбит/сек
    Каналы : 6 каналов
    Расположение каналов : Front: L C R, Side: L R, LFE
    Частота : 48, 0 КГц
    Битовая глубина : 16 бит
    Метод сжатия : С потерями
    Размер потока : 244 Мбайт (16%)
    Default : Да
    Forced : Нет


    Онлайн видео Ярость


    Размер скачиваемого торрента: 1.46 GB (1568108306 Bytes)

    Ярость/Slow Burn (2005) BDRip-AVC | P
    загрузка...
    Рейтинг →
     (голосов: 1, оценка 3/5, голосовать можно 1 раз )

    Другие торренты по теме:



      Комментарии (0):

      Информация

      Информация

        Посетители, находящиеся в группе Гости, не могут оставлять комментарии в данной новости.

        ↓ Меню



        ↓ Опрос

        А Вы добавили сайт в закладки?
        Да
        Не


        Top 10 за неделю (Фильмы)