.
Авторизация | Регистрация
Хочешь лучшие торренты? Добавь свой email!
Добавить
» » Сверхъестественное / Supernatural (2015) WEB-DLRip-AVC | NewStudio NovaFilm торрент скачать бесплатно




    Сверхъестественное / Supernatural (2015) WEB-DLRip-AVC | NewStudio NovaFilm торрент скачать бесплатно

    Опубликовал: Админ | Дата: 15-10-2015, 10:03 | Просмотров: 103



    ;;Сверхъестественное;;
    Детально о кино
    Русское название: Сверхъестественное
    Русское название в мировом прокате: Supernatural
    Создали в: 2015
    Категория жанра: Фантастика, мистика, ужасы, триллер, драма
    Главный режиссер: Роберт Сингер, Дж. Миллер Тобин, Джеймс Л. Конуэй, Жанно Шварк, Тим Эндрю, Питер Эллис, Филип Сгриккиа, Ким Мэннерс,
    Дэвид Наттер, Эрик Крипке

    Актеры
    Джаред Падалеки, Дженсен Эклс, Джим Бивер, Миша Коллинз, Марк Шеппард, Марк Пеллегрино, Женевьев Падалеки, Кэти Кэссиди, Джеймс Патрик Стюарт, Саманта Феррис, Алона Тал, Осрик Чау, Джеффри Дин Морган, Синди Сэмпсон, Митч Пилледжи, Курт Фуллер, Ким Родс, Саманта Смит, Николас Элиа и др.


    Сюжет фильма

    Сериал рассказывает о приключениях братьев Сэма и Дина Винчестеров, которые путешествуют по Соединённым Штатам на чёрном автомобиле Chevrolet Impala 1967 года, расследуют паранормальные явления, многие из которых основаны на американских городских легендах и фольклоре, и сражаются с порождениями зла, такими как демоны и призраки.

    Снималось в: США
    Время просмотра: ~ 00: 43: 00
    Перевод текста: Профессиональный (многоголосый закадровый) -
    NewStudio NovaFilm

    Файл
    Кодек для видео: MPEG-4 AVC
    Качество фильма: WEB-DL-AVC
    Информация о видео: 1024x576, 23.976 fps, ~1600 kbps
    Информация о звуке: 48 kHz, 6 ch, ~384 kbps

    Релиз подготовил: FAGOT100
    Список серий
    01. Out of the Darkness, Into the Fire/Из тьмы да в полымя
    MediaInfo:
    Формат : Matroska
    Версия формата : Version 2
    Размер файла : 604 Мбайт
    Продолжительность : 42 м.
    Общий поток : 1989 Кбит/сек
    Дата кодирования : UTC 2015-10-14 07: 20: 00
    Программа кодирования : mkvmerge v5.3.0 (;I could have danced;) built on Feb 9 2012 10: 38: 07
    Библиотека кодирования : Lavf56.25.101
    ENCODING_INFO : MATROSKA, WEBM MKV 480p/H264 X264 VBR-2P 1604kbps Custom/AC3 AC3 CBR 192kbps Custom
    Видео
    Идентификатор : 1
    Формат : AVC
    Формат/Информация : Advanced Video Codec
    Профиль формата : High@L4.1
    Параметр CABAC формата : Да
    Параметр ReFrames формата : 8 кадров
    Идентификатор кодека : V_MPEG4/ISO/AVC
    Продолжительность : 42 м.
    Битрейт : 1604 Кбит/сек
    Ширина : 1024 пикселя
    Высота : 576 пикселей
    Соотношение сторон : 16: 9
    Режим частоты кадров : Постоянный
    Частота кадров : 23, 976 кадра/сек
    Цветовое пространство : YUV
    Субдискретизация насыщенности : 4: 2: 0
    Битовая глубина : 8 бит
    Тип развёртки : Прогрессивная
    Бит/(Пиксели*Кадры) : 0.113
    Размер потока : 476 Мбайт (79%)
    Библиотека кодирования : x264 core 148 r2597M e86f3a1
    Настройки программы : cabac=1/ref=8/deblock=1: -3: -3/analyse=0x3: 0x113/me=umh/subme=10/psy=1/psy_rd=1.00: 0.00/mixed_ref=1/me_range=32/chroma_me=1/trellis=2/8x8dct=1/cqm=0/deadzone=21, 11/fast_pskip=0/chroma_qp_offset=-2/threads=12/lookahead_threads=1/sliced_threads=0/nr=0/decimate=0/interlaced=0/bluray_compat=0/constrained_intra=0/bframes=6/b_pyramid=2/b_adapt=2/b_bias=0/direct=3/weightb=1/open_gop=0/weightp=2/keyint=240/keyint_min=23/scenecut=40/intra_refresh=0/rc=2pass/mbtree=0/bitrate=1604/ratetol=1.0/qcomp=0.60/qpmin=0/qpmax=69/qpstep=4/cplxblur=20.0/qblur=0.5/ip_ratio=1.40/pb_ratio=1.30/aq=1: 1.00
    Язык : English
    Default : Да
    Forced : Нет
    Основные цвета : BT.709
    Характеристики трансфера : BT.709
    Коэффициенты матрицы : BT.709
    Аудио
    Идентификатор : 2
    Формат : AC-3
    Формат/Информация : Audio Coding 3
    Расширение режима : CM (complete main)
    Параметр Endianness формата : Big
    Идентификатор кодека : A_AC3
    Продолжительность : 42 м.
    Вид битрейта : Постоянный
    Битрейт : 384 Кбит/сек
    Каналы : 6 каналов
    Расположение каналов : Front: L C R, Side: L R, LFE
    Частота : 48, 0 КГц
    Битовая глубина : 16 бит
    Метод сжатия : С потерями
    Размер потока : 117 Мбайт (19%)
    Язык : Russian
    Default : Да
    Forced : Нет
    Forced : Нет
    Скриншоты



    Онлайн видео Сверхъестественное


    Размер скачиваемого торрента: 604.44 MB (633801082 Bytes)

    Сверхъестественное/Supernatural (2015) WEB-DLRip-AVC | NewStudio NovaFilm
    загрузка...
    Рейтинг →
     (голосов: 1, оценка 4/5, голосовать можно 1 раз )

    Другие торренты по теме:

  • Сверхъестественное / Supernatural (2016) HDTVRip | КолдФильм
  • Сверхъестественное / Supernatural (2016) WEB-DL 1080р | NovaFilm
  • Сверхъестественное / Supernatural: The Animation (2011) BDRip | AniFilm
  • Сверхъестественное / Supernatural (2010-2011) DVDRip | Рен-ТВ
  • Сверхъестественное / Supernatural (2012) WEB-DLRip | LostFilm
  • Сверхъестественное / Supernatural (2013) HDTVRip | Kerob
  • Сверхъестественное / Supernatural (2013) HDTVRip | DreamRecords скачать через торрент бесплатно
  • Сверхъестественное / Supernatural (2005) HDRip от Youtracker | D | КПК скачать через торрент бесплатно


    • Комментарии (0):

      Информация

      Информация

        Посетители, находящиеся в группе Гости, не могут оставлять комментарии в данной новости.

        ↓ Меню



        ↓ Опрос

        А Вы добавили сайт в закладки?
        Да
        Не


        Top 10 за месяц (Фильмы)