.
Авторизация | Регистрация




Чекист (1992) DVDRip-AVC скачать торрент бесплатно

Опубликовал: Админ | Дата: 17-10-2015, 05:01 | Просмотров: 286



Детально о кино
Русское название: Чекист
Создали в: 1992
Категория жанра: драма
Главный режиссер: Александр Рогожкин

Актеры
Игорь Сергеев, Алексей Полуян, Виктор Бычков, Сергей Мигицко, Татьяна Кабанова, Михаил Вассербаум, Сергей Исавнин, Василий Домрачев, Александр Медведев, Виктор Хозяинов, Александр Харашкевич, Игорь Головин, Нина Усатова, Оксана Базилевич, Сергей Заморев, Марина Крутикова, Мария Воронина, Ольга Колоскова, Сергей Косырев, Сергей Куприянов, Маргарита Журавлева, Алексей Янковский, Василий Дерягин, Юрий Серов, Борис Морозов, Евгений Миненко, Татьяна Баркова, Людмила Богданова, Юлия Джербинова, Илья Ривин

Сюжет фильма
Перед лицом смерти
Действие происходит в страшные времена `красного террора`, когда без суда и следствия были уничтожены миллионы людей. Кто приводил в действие адскую машину смерти? Психологический портрет революционного палача — в центре фильма.
Весь этот фильм еще сдобрен здоровой долей сюрреализма, который правда заметен не сразу, так как слишком жуткое зрелище мы видим перед глазами, чтобы уловить нотки фарса. В итоге мы получаем совершенно жуткую картину, которую даже сложно оценить с художественной точки зрения, так как действий минимум, а остальное смотрится как кошмарный сон или документальные хроники резни.

Снималось в: Россия, Франция/Sodaperaga Productions, Trinity Bridge Studio
Время просмотра: 01: 25: 13
Перевод текста: не требуется (Русский)
Файл
Кодек для видео: MPEG-4 AVC (MKV)
Качество фильма: DVDRip-AVC
Информация о видео: AVC, 1024x752, 1889 Kbps
Информация о звуке: AC3 Dolby Digital, 2/0 (L, R) ch, ~192 kbps
Субтитры: Русские, английские

MediaInfo

General
Unique ID : 199114743455515152969520361183567236352 (0x95CC1ACC3E1FFB8C9E674E4D10F14D00)
Complete name : D: ДИСК2.ФИЛЬМЫ СНГЧекист 1991Chekist.1991.DVD-AVC.mkv
Format : Matroska
Format version : Version 4/Version 2
File size : 1.26 GiB
Duration : 1h 25mn
Overall bit rate : 2 124 Kbps
Movie name : Release by ARHANGELvamo
Encoded date : UTC 2015-10-16 08: 14: 10
Writing application : mkvmerge v8.2.0 (;World of Adventure;) 64bit
Writing library : Lavf56.25.101
ENCODING_INFO : DVD MKV/MPEG2 X264 CBR 2000kbps Custom/AC3 COPY
DURATION : 01: 24: 44.075000000
NUMBER_OF_FRAMES : 757
NUMBER_OF_BYTES : 20701
_STATISTICS_WRITING_APP : mkvmerge v8.2.0 (;World of Adventure;) 64bit
_STATISTICS_WRITING_DATE_UTC : 2015-10-16 08: 14: 10
_STATISTICS_TAGS : BPS DURATION NUMBER_OF_FRAMES NUMBER_OF_BYTES
Video
ID : 1
Format : AVC
Format/Info : Advanced Video Codec
Format profile : High@L4.1
Format settings, CABAC : Yes
Format settings, ReFrames : 8 frames
Codec ID : V_MPEG4/ISO/AVC
Duration : 1h 25mn
Bit rate : 1 890 Kbps
Nominal bit rate : 2 000 Kbps
Width : 1 024 pixels
Height : 752 pixels
Display aspect ratio : 4: 3
Frame rate mode : Constant
Frame rate : 25.000 fps
Color space : YUV
Chroma subsampling : 4: 2: 0
Bit depth : 8 bits
Scan type : Progressive
Bits/(Pixel*Frame) : 0.098
Stream size : 1.12 GiB (89%)
Writing library : x264 core 148 r2597M e86f3a1
Encoding settings : cabac=1/ref=8/deblock=1: -3: -3/analyse=0x3: 0x133/me=umh/subme=8/psy=1/psy_rd=1.00: 0.15/mixed_ref=1/me_range=16/chroma_me=1/trellis=2/8x8dct=1/cqm=0/deadzone=21, 11/fast_pskip=1/chroma_qp_offset=-3/threads=9/lookahead_threads=3/sliced_threads=0/nr=0/decimate=1/interlaced=0/bluray_compat=0/constrained_intra=0/bframes=8/b_pyramid=2/b_adapt=2/b_bias=0/direct=3/weightb=1/open_gop=0/weightp=2/keyint=250/keyint_min=25/scenecut=40/intra_refresh=0/rc_lookahead=40/rc=cbr/mbtree=1/bitrate=2000/ratetol=1.0/qcomp=0.60/qpmin=0/qpmax=69/qpstep=4/vbv_maxrate=2000/vbv_bufsize=3000/nal_hrd=none/filler=0/ip_ratio=1.40/aq=1: 1.00
Default : Yes
Forced : No
Color range : Limited
Color primaries : BT.601 PAL
Transfer characteristics : BT.470 System B, BT.470 System G
Matrix coefficients : BT.601
DURATION : 01: 25: 13.240000000
NUMBER_OF_FRAMES : 127831
NUMBER_OF_BYTES : 1232531516
_STATISTICS_WRITING_APP : mkvmerge v8.2.0 (;World of Adventure;) 64bit
_STATISTICS_WRITING_DATE_UTC : 2015-10-16 08: 14: 10
_STATISTICS_TAGS : BPS DURATION NUMBER_OF_FRAMES NUMBER_OF_BYTES
Audio
ID : 2
Format : AC-3
Format/Info : Audio Coding 3
Mode extension : CM (complete main)
Format settings, Endianness : Big
Codec ID : A_AC3
Duration : 1h 25mn
Bit rate mode : Constant
Bit rate : 192 Kbps
Channel(s) : 2 channels
Channel positions : Front: L R
Sampling rate : 48.0 KHz
Compression mode : Lossy
Stream size : 117 MiB (9%)
Language : Russian
Default : Yes
Forced : No
DURATION : 01: 25: 13.248000000
NUMBER_OF_FRAMES : 159789
NUMBER_OF_BYTES : 122717952
_STATISTICS_WRITING_APP : mkvmerge v8.2.0 (;World of Adventure;) 64bit
_STATISTICS_WRITING_DATE_UTC : 2015-10-16 08: 14: 10
_STATISTICS_TAGS : BPS DURATION NUMBER_OF_FRAMES NUMBER_OF_BYTES
Text #1
ID : 3
Format : UTF-8
Codec ID : S_TEXT/UTF8
Codec ID/Info : UTF-8 Plain Text
Language : Russian
Default : Yes
Forced : No
Text #2
ID : 4
Format : UTF-8
Codec ID : S_TEXT/UTF8
Codec ID/Info : UTF-8 Plain Text
Language : English
Default : No
Forced : No
Menu
00: 00: 00.000 : : Глава 1
00: 07: 35.387 : : Глава 2
00: 14: 23.788 : : Глава 3
00: 21: 50.229 : : Глава 4
00: 29: 33.782 : : Глава 5
00: 37: 14.154 : : Глава 6
00: 43: 50.456 : : Глава 7
00: 51: 25.843 : : Глава 8
00: 59: 39.360 : : Глава 9
01: 07: 35.973 : : Глава 10
01: 13: 35.377 : : Глава 11
01: 19: 44.869 : : Глава 12
Скриншоты


Онлайн видео Чекист (1992) DVDRip


Размер скачиваемого торрента: 1.26 GB (1357436180 Bytes)

Чекист (1992) DVDRip-AVC
загрузка...
Рейтинг →
 (голосов: 1, оценка 4/5, голосовать можно 1 раз )

Другие торренты по теме:

  • Виктор Пелевин - Лампа Мафусаила, или Крайняя битва чекистов с масонами (2016) MP3 скачать торрент бесплатно


    • Комментарии (0):

      Информация

      Информация

        Посетители, находящиеся в группе Гости, не могут оставлять комментарии в данной новости.

        ↓ Меню



        ↓ Опрос

        А Вы добавили сайт в закладки?
        Да
        Не


        Top 10 за неделю (Фильмы)