.
Авторизация | Регистрация
» » Земля будущего / Tomorrowland (2015) DVD9 | Custom скачать торрент бесплатно




    Земля будущего / Tomorrowland (2015) DVD9 | Custom скачать торрент бесплатно

    Опубликовал: Админ | Дата: 17-10-2015, 05:01 | Просмотров: 70


    Представьте мир, где возможно всё

    Создали в: 2015
    Создали в: США, Испания/Walt Disney Pictures, Babieka, A113
    Категория жанра: Фантастика, приключения, семейный
    Главный режиссер: Брэд Бёрд
    Продюсеры: Брэд Бёрд, Джеффри Чернов, Дэймон Линделоф
    Актеры: Бритт Робертсон, Джордж Клуни, Рэффи Кэссиди, Хью Лори, Тим МакГроу, Кэтрин Хан, Кигэн-Майкл Ки, Кристофер Бауэр, Томас Робинсон, Пирс Гэнон
    Описание фильма:
    Когда в руки к молодой девушке, жаждущей новых приключений, попадает загадочный предмет, открывающий доступ в параллельную реальность, она вынуждена обратиться за помощью к циничному гению-изобретателю Фрэнку. Кейси должна убедить бывшего вундеркинда раскрыть ей тайну загадочного места, находящегося вне привычной реальности, известного как Земля будущего, и убедить Фрэнка вернуться туда, откуда его однажды изгнали…
    Перевод текста: Дублированный
    Субтитры: Английские, русские
    Дата мировой премьеры: 9 мая 2015
    Дата российской премьеры: 21 мая 2015, WDSSPR
    Дата выхода DVD релиза: 13 октября 2015, Уолт Дисней Компани СНГ
    Время просмотра: 02: 09: 54
    Качество фильма видео: DVD9
    Информация о видео: MPEG-2, 720x480@853x480 (NTSC 16: 9), ~5200 Кбит/сек
    Информация о звуке 1: AC3 5.1, 448 Кбит/сек Английский - оригинал
    Информация о звуке 2: AC3 2.0, 192 Кбит/сек Английский - описательный
    Информация о звуке 3: AC3 5.1, 448 Кбит/сек Русский - дублированный
    Доп. материалы: Дневник Брэда Бёрда. НАСА, Реклама Залпа из прошлого, Ролики
    DVDInfo:
    Title: Tomorrowland (2015) DVD9 NTSC
    Size: 6.33 Gb ( 6 637 654, 00 KBytes ) - DVD-9
    Enabled regions: 1, 2, 3, 4, 5, 6, 7, 8
    VTS_01 :
    Play Length: 00: 00: 00
    Video: NTSC 16: 9 (720x480) VBR, Auto PanScan
    Audio:
    Not specified (Dolby AC3, 2 ch)
    Not specified (Dolby AC3, 2 ch)
    Not specified (Dolby AC3, 2 ch)
    Not specified (Dolby AC3, 2 ch)
    Not specified (Dolby AC3, 2 ch)
    Not specified (Dolby AC3, 2 ch)
    Not specified (Dolby AC3, 2 ch)
    Not specified (Dolby AC3, 2 ch)
    Subtitles:
    Not specified
    Not specified
    Not specified
    Not specified
    Not specified
    Not specified
    Not specified
    Not specified
    Not specified
    Not specified
    Not specified
    Not specified
    VTS_02 :
    Play Length: 00: 00: 14
    Video: NTSC 16: 9 (720x480) VBR, Auto Letterboxed
    Audio:
    English (Dolby AC3, 6 ch)
    VTS_03 :
    Play Length: 00: 02: 47+00: 00: 41
    Video: NTSC 16: 9 (720x480) VBR, Auto Letterboxed
    Audio:
    English (Dolby AC3, 2 ch)
    Subtitles:
    English
    Russian
    VTS_04 :
    Play Length: 00: 04: 09+00: 01: 54+00: 03: 22+00: 04: 46+00: 01: 54+00: 03: 22
    Video: NTSC 16: 9 (720x480) VBR, Auto Letterboxed
    Audio:
    English (Dolby AC3, 6 ch)
    VTS_05 :
    Play Length: 00: 00: 01
    Video: NTSC 16: 9 (720x480) VBR, Auto Letterboxed
    VTS_06 :
    Play Length: 02: 09: 54
    Video: NTSC 16: 9 (720x480) VBR, Auto Letterboxed
    Audio:
    English (Dolby AC3, 6 ch)
    English (Dolby AC3, 2 ch)
    Russian (Dolby AC3, 6 ch)
    Subtitles:
    English
    Russian
    Russian
    VTS_07 :
    Play Length: 00: 00: 02+00: 00: 03+00: 00: 02
    Video: NTSC 16: 9 (720x480) VBR, Auto PanScan
    * Menus Information *
    VIDEO_TS Menu
    Video:
    NTSC 16: 9 (720x480) VBR
    Auto PanScan
    Audio:
    Not specified (Dolby AC3, 2 ch)
    English Language Unit :
    Title Menu
    VTS_01 Menu
    Video:
    NTSC 4: 3 (720x480) VBR
    Auto PanScan, Auto Letterboxed
    English Language Unit :
    Root Menu
    VTS_02 Menu
    Video:
    NTSC 16: 9 (720x480) VBR
    Auto PanScan
    English Language Unit :
    Root Menu
    Audio Menu
    Angle menu
    Chapter (PTT) Menu
    VTS_03 Menu
    Video:
    NTSC 4: 3 (720x480) VBR
    Auto PanScan, Auto Letterboxed
    English Language Unit :
    Root Menu
    VTS_04 Menu
    Video:
    NTSC 4: 3 (720x480) VBR
    Auto PanScan, Auto Letterboxed
    English Language Unit :
    Root Menu
    VTS_05 Menu
    Video:
    NTSC 16: 9 (720x480) VBR
    Auto PanScan
    Audio:
    Not specified (Dolby AC3, 2 ch)
    English Language Unit :
    Root Menu
    Angle menu
    VTS_06 Menu
    Video:
    NTSC 4: 3 (720x480) VBR
    Auto PanScan, Auto Letterboxed
    English Language Unit :
    Root Menu
    Angle menu
    VTS_07 Menu
    Video:
    NTSC 16: 9 (720x480) VBR
    Auto PanScan
    English Language Unit :
    Root Menu
    Angle menu
    MediaInfo:
    Общее
    Полное имя : F: ВидеоTomorrowland (2015) DVD9 NTSCVIDEO_TSVTS_06_1.VOB
    Формат : MPEG-PS
    Размер файла : 1024 Мбайт
    Продолжительность : 22 м.
    Режим общего битрейта : Переменный
    Общий поток : 6435 Кбит/сек
    Видео
    Идентификатор : 224 (0xE0)
    Формат : MPEG Video
    Версия формата : Version 2
    Профиль формата : Main@Main
    Параметр BVOP формата : Да
    Параметр матрицы формата : Выборочная
    Параметр GOP формата : Variable
    Продолжительность : 22 м.
    Вид битрейта : Переменный
    Битрейт : 5219 Кбит/сек
    Максимальный битрейт : 9800 Кбит/сек
    Ширина : 720 пикселей
    Высота : 480 пикселей
    Соотношение сторон : 16: 9
    Частота кадров : 23, 976 кадра/сек
    Стандарт вещания : Component
    Цветовое пространство : YUV
    Субдискретизация насыщенности : 4: 2: 0
    Битовая глубина : 8 бит
    Тип развёртки : Прогрессивная
    Порядок развёртки : 2: 3 Pulldown
    Метод сжатия : С потерями
    Бит/(Пиксели*Кадры) : 0.630
    Временной код первого кадра : 00: 59: 59;00
    Оригинал временного кода : Group of pictures t_head
    Размер потока : 830 Мбайт (81%)
    Основные цвета : BT.601 NTSC
    Характеристики трансфера : BT.601
    Коэффициенты матрицы : BT.601
    Аудио #1
    Идентификатор : 189 (0xBD)-128 (0x80)
    Формат : AC-3
    Формат/Информация : Audio Coding 3
    Расширение режима : CM (complete main)
    Параметр Endianness формата : Big
    Режим смешивания : DVD-Video
    Продолжительность : 22 м.
    Вид битрейта : Постоянный
    Битрейт : 448 Кбит/сек
    Каналы : 6 каналов
    Расположение каналов : Front: L C R, Side: L R, LFE
    Частота : 48, 0 КГц
    Битовая глубина : 16 бит
    Метод сжатия : С потерями
    Размер потока : 71, 3 Мбайт (7%)
    Аудио #2
    Идентификатор : 189 (0xBD)-129 (0x81)
    Формат : AC-3
    Формат/Информация : Audio Coding 3
    Профиль формата : Dolby Digital
    Расширение режима : CM (complete main)
    Параметр Endianness формата : Big
    Режим смешивания : DVD-Video
    Продолжительность : 22 м.
    Вид битрейта : Постоянный
    Битрейт : 192 Кбит/сек
    Каналы : 2 канала
    Расположение каналов : Front: L R
    Частота : 48, 0 КГц
    Битовая глубина : 16 бит
    Метод сжатия : С потерями
    Размер потока : 30, 5 Мбайт (3%)
    Аудио #3
    Идентификатор : 189 (0xBD)-130 (0x82)
    Формат : AC-3
    Формат/Информация : Audio Coding 3
    Расширение режима : CM (complete main)
    Параметр Endianness формата : Big
    Режим смешивания : DVD-Video
    Продолжительность : 22 м.
    Вид битрейта : Постоянный
    Битрейт : 448 Кбит/сек
    Каналы : 6 каналов
    Расположение каналов : Front: L C R, Side: L R, LFE
    Частота : 48, 0 КГц
    Битовая глубина : 16 бит
    Метод сжатия : С потерями
    Размер потока : 71, 3 Мбайт (7%)
    Текст #1
    Идентификатор : 189 (0xBD)-32 (0x20)
    Формат : RLE
    Формат/Информация : Run-length encoding
    Режим смешивания : DVD-Video
    Продолжительность : 22 м.
    Текст #2
    Идентификатор : 224 (0xE0)-CC3
    Формат : EIA-608
    Режим смешивания, доп. информация : Muxed in Video #1
    Вид битрейта : Постоянный
    Размер потока : 0, 00 байт (0%)
    Текст #3
    Идентификатор : 189 (0xBD)-33 (0x21)
    Формат : RLE
    Формат/Информация : Run-length encoding
    Режим смешивания : DVD-Video
    Меню
    Доп. информация:
    Исходником послужил лицензионный DVD9 из-за рубежа. Французскую звуковую дорожку заменил на русскую вместе с субтитрами. Испанскую звуковую дорожку вместе с субтитрами удалил.
    Предупреждающие надписи скрыл.
    Доп. материалы переведены русскими субтитрами.
    Использовались программы: MKVExtractGUI2, TranzcodeGUI, SONY Vegas Pro, DVD ReMake Pro, PgcDemux, Adobe PhotoShop, MuxMan, Subtitle Workshop, MaestroSBT, DVDSubEdit.
    Скриншоты меню:


    Скриншоты:

    Залил: Саша 1992

    Онлайн видео Земля будущего


    Размер скачиваемого торрента: 6.33 GB (6796957696 Bytes)

    Земля будущего/Tomorrowland (2015) DVD9 | Custom
    загрузка...
    Рейтинг →
     (голосов: 1, оценка 5/5, голосовать можно 1 раз )

    Другие торренты по теме:

  • Земля будущего (2015) HDRip скачать торрент бесплатно
  • Земля будущего / Tomorrowland (2015) CAMRip скачать торрент бесплатно
  • Земля будущего / Tomorrowland (2015) CAMRip от torrentfilm скачать торрент бесплатно
  • Земля будущего / Tomorrowland (2015) CAMRip *PROPER* скачать торрент бесплатно
  • Земля будущего / Tomorrowland (2015) CAMRip *PROPER* V2 скачать торрент бесплатно
  • Земля будущего / Tomorrowland (2015) CAMRip *PROPER* V2 скачать торрент бесплатно
  • Земля будущего / Tomorrowland (2015) TS скачать торрент бесплатно
  • Земля будущего / Tomorrowland (2015) TS скачать торрент бесплатно


    • Комментарии (0):

      Информация

      Информация

        Посетители, находящиеся в группе Гости, не могут оставлять комментарии в данной новости.

        ↓ Меню



        ↓ Опрос

        А Вы добавили сайт в закладки?
        Да
        Не


        Top 10 за неделю (Фильмы)