.
Авторизация | Регистрация
Хочешь лучшие торренты? Добавь свой email!
Добавить




Орлеан (2015) WEB-DL 720p | iTunes торрент скачать бесплатно

Опубликовал: Админ | Дата: 18-10-2015, 05:01 | Просмотров: 72



Детально о кино
Русское название: Орлеан
Русское название в мировом прокате: Орлеан
Создали в: 2015
Категория жанра: комедия, триллер
Главный режиссер: Андрей Прошкин

Актеры
Елена Лядова, Виктор Сухоруков, Виталий Хаев, Олег Ягодин, Тимофей Трибунцев, Павел Табаков, Евгений Сытый, Александр Бавтриков, Азамат Нигманов, Полина Шулика

Сюжет фильма
На русский провинциальный город с необычным названием Орлеан надвигается буря. Пока что о ней не догадываются его жители: парикмахерша Лида спит с кем ни попадя; врач Рудик водит к себе девиц, пользуясь служебным положением; полицейский не гнушается убийством; а фокусник, кажется, и вправду перепиливает девушек на сцене.


Снималось в: Россия
Время просмотра: 01: 50: 20
Тип перевода: Оригинальное iTunes
Файл
Тип видео: MKV
Качество фильма: WEB-DL 720p
Информация о видео: MPEG-4 AVC, 3971 kb/s, 1280x536
Информация о звуке: AC3, 384 kb/s (6 ch)
MI

Format : Matroska
Format version : Version 4/Version 2
File size : 3.42 GiB
Duration : 1h 50mn
Overall bit rate : 4 443 Kbps
Encoded date : UTC 2015-10-17 18: 17: 00
Writing application : mkvmerge v8.3.0 (;Over the Horizon;) 64bit
Writing library : libebml v1.3.1 + libmatroska v1.4.2
DURATION : 01: 50: 19.840000000
NUMBER_OF_FRAMES : 206870
NUMBER_OF_BYTES : 317752320
_STATISTICS_WRITING_APP : mkvmerge v8.3.0 (;Over the Horizon;) 64bit
_STATISTICS_WRITING_DATE_UTC : 2015-10-17 18: 17: 00
_STATISTICS_TAGS : BPS DURATION NUMBER_OF_FRAMES NUMBER_OF_BYTES
Video
ID : 1
Format : AVC
Format/Info : Advanced Video Codec
Format profile : Main@L3.1
Format settings, CABAC : No
Format settings, ReFrames : 2 frames
Codec ID : V_MPEG4/ISO/AVC
Duration : 1h 50mn
Bit rate : 3 971 Kbps
Width : 1 280 pixels
Height : 536 pixels
Display aspect ratio : 2.40: 1
Frame rate mode : Constant
Frame rate : 24.000 fps
Color space : YUV
Chroma subsampling : 4: 2: 0
Bit depth : 8 bits
Scan type : Progressive
Bits/(Pixel*Frame) : 0.241
Stream size : 3.06 GiB (89%)
Language : English
Default : Yes
Forced : No
Color range : Limited
Color primaries : BT.709
Transfer characteristics : BT.709
Matrix coefficients : BT.709
Audio
ID : 2
Format : AC-3
Format/Info : Audio Coding 3
Mode extension : CM (complete main)
Format settings, Endianness : Big
Codec ID : A_AC3
Duration : 1h 50mn
Bit rate mode : Constant
Bit rate : 384 Kbps
Channel(s) : 6 channels
Channel positions : Front: L C R, Side: L R, LFE
Sampling rate : 48.0 KHz
Bit depth : 16 bits
Compression mode : Lossy
Stream size : 303 MiB (9%)
Language : Russian
Default : Yes
Forced : No
Menu
00: 00: 00.000 : en: Глава 1
00: 06: 38.000 : en: Глава 2
00: 12: 22.000 : en: Глава 3
00: 18: 39.000 : en: Глава 4
00: 24: 03.000 : en: Глава 5
00: 29: 15.000 : en: Глава 6
00: 34: 38.000 : en: Глава 7
00: 39: 45.000 : en: Глава 8
00: 44: 38.000 : en: Глава 9
00: 50: 52.000 : en: Глава 10
00: 57: 24.000 : en: Глава 11
01: 02: 38.000 : en: Глава 12
01: 08: 00.000 : en: Глава 13
01: 14: 18.000 : en: Глава 14
01: 19: 31.000 : en: Глава 15
01: 24: 22.000 : en: Глава 16
01: 29: 24.000 : en: Глава 17
01: 35: 16.000 : en: Глава 18
01: 41: 11.000 : en: Глава 19
Скриншоты





Онлайн видео Орлеан (2015) WEB-DL 720p


Размер скачиваемого торрента: 3.42 GB (3676463351 Bytes)

Орлеан (2015) WEB-DL 720p | iTunes
загрузка...
Рейтинг →
 (голосов: 1, оценка 3/5, голосовать можно 1 раз )

Другие торренты по теме:

  • Морская полиция: Новый Орлеан / NCIS: New Orleans (2014) WEB-DL 1080p | BaibaKo скачать через торрент бесплатно
  • Морская полиция: Новый Орлеан / NCIS: New Orleans (2014) WEB-DL 720p | BaibaKo


    • Комментарии (0):

      Информация

      Информация

        Посетители, находящиеся в группе Гости, не могут оставлять комментарии в данной новости.

        ↓ Меню



        ↓ Опрос

        А Вы добавили сайт в закладки?
        Да
        Не


        Top 10 за месяц (Фильмы)