.
Авторизация | Регистрация
» » Наркобарон / Narc (2002) HDRip-AVC | P, A скачать торрент бесплатно




    Наркобарон / Narc (2002) HDRip-AVC | P, A скачать торрент бесплатно

    Опубликовал: Админ | Дата: 19-10-2015, 05:01 | Просмотров: 159


    Наркобарон/Narc (2002) HDRip-AVC | P, A

    Создали в: США, Канада, Paramount Pictures, Lions Gate Films, Splendid Pictures, Tiara Blue Films
    Категория жанра: Боевик, Триллер, Драма, Криминал
    Главный режиссер: Джо Карнахан
    Актеры: Рэй Лиотта, Джейсон Патрик, Ллойд Адамс, Миган Исса, Лина Фелис, Алан С. Петерсон, Карен Робинсон, Чи МакБрайд, Бут Сэвадж, Алан Ван Спрэн

    Описание фильма

    Полиция Детройта вызывает уволенного 18 месяцев назад спецагента для расследования перестрелки, в которой пострадала беременная женщина. Спецагент берет себе напарника, постоянно попадающего во внутренние полицейские передряги и оба идут по следу.
    Мафиози водят их за нос, завербованные информаторы погибают, начальники хотят закрыть дело. Докопаются ли агенты до правды оставшись в живых?


    Дата мировой премьеры: 14 января 2002
    Дата выхода DVD/Blu-ray релиза: 14 октября 2003, Пирамида
    Релиз подготовил: FAGOT100(NNM-CLUB)
    Время просмотра: 01: 45: 12
    Качество фильма видео: HDRip-AVC
    Перевод текста: Профессиональный (многоголосый, закадровый), авторский (одноголосый, закадровый) х2
    Язык субтитров: Русский, английский
    Вид субтитров: Вшитые, отключаемые
    Информация о видео: AVC, 1024x552 (1.855), 23.976 fps, 2 549 Kbps (0.188 bit/pixel)
    Информация о звуке #1: AC-3, 48.0 KHz, 6 ch, 320 Kbps, CBR (Russian) - многоголосый
    Информация о звуке #2: AC-3, 48.0 KHz, 6 ch, 448 Kbps, CBR (Russian) - авторский А.Гаврилов
    Информация о звуке #3: AC-3, 48.0 KHz, 6 ch, 448 Kbps, CBR (Russian) - авторский М.Яроцкий
    Скриншоты:

    Mediainfo:

    Формат : Matroska
    Версия формата : Version 2
    Размер файла : 2, 77 Гбайт
    Продолжительность : 1 ч. 45 м.
    Общий поток : 3765 Кбит/сек
    Название фильма : Narc (2002)
    Дата кодирования : UTC 2015-10-18 19: 03: 39
    Программа кодирования : mkvmerge v5.3.0 (;I could have danced;) built on Feb 9 2012 10: 38: 07
    Библиотека кодирования : libebml v1.2.3 + libmatroska v1.3.0
    Attachment : Yes
    Видео
    Идентификатор : 1
    Формат : AVC
    Формат/Информация : Advanced Video Codec
    Профиль формата : High@L4.1
    Параметр CABAC формата : Да
    Параметр ReFrames формата : 8 кадров
    Идентификатор кодека : V_MPEG4/ISO/AVC
    Продолжительность : 1 ч. 45 м.
    Битрейт : 2549 Кбит/сек
    Ширина : 1024 пикселя
    Высота : 552 пикселя
    Соотношение сторон : 1, 85: 1
    Режим частоты кадров : Постоянный
    Частота кадров : 23, 976 кадра/сек
    Цветовое пространство : YUV
    Субдискретизация насыщенности : 4: 2: 0
    Битовая глубина : 8 бит
    Тип развёртки : Прогрессивная
    Бит/(Пиксели*Кадры) : 0.188
    Размер потока : 1, 82 Гбайт (66%)
    Библиотека кодирования : x264 core 146 r2538 121396c
    Настройки программы : cabac=1/ref=8/deblock=1: -3: -3/analyse=0x3: 0x133/me=umh/subme=10/psy=1/psy_rd=1.00: 0.00/mixed_ref=1/me_range=32/chroma_me=1/trellis=2/8x8dct=1/cqm=0/deadzone=21, 11/fast_pskip=0/chroma_qp_offset=-2/threads=12/lookahead_threads=1/sliced_threads=0/nr=0/decimate=0/interlaced=0/bluray_compat=0/constrained_intra=0/bframes=6/b_pyramid=2/b_adapt=2/b_bias=0/direct=3/weightb=1/open_gop=0/weightp=2/keyint=240/keyint_min=23/scenecut=40/intra_refresh=0/rc=2pass/mbtree=0/bitrate=2549/ratetol=1.0/qcomp=0.60/qpmin=0/qpmax=69/qpstep=4/cplxblur=20.0/qblur=0.5/ip_ratio=1.40/pb_ratio=1.30/aq=1: 1.00
    Язык : English
    Default : Да
    Forced : Нет
    Аудио #1
    Идентификатор : 2
    Формат : AC-3
    Формат/Информация : Audio Coding 3
    Расширение режима : CM (complete main)
    Параметр Endianness формата : Big
    Идентификатор кодека : A_AC3
    Продолжительность : 1 ч. 45 м.
    Вид битрейта : Постоянный
    Битрейт : 320 Кбит/сек
    Каналы : 6 каналов
    Расположение каналов : Front: L C R, Side: L R, LFE
    Частота : 48, 0 КГц
    Битовая глубина : 16 бит
    Метод сжатия : С потерями
    Размер потока : 241 Мбайт (8%)
    Заголовок : AC3, 6 ch, 320 Kbps, MVO
    Язык : Russian
    Default : Да
    Forced : Нет
    Аудио #2
    Идентификатор : 3
    Формат : AC-3
    Формат/Информация : Audio Coding 3
    Расширение режима : CM (complete main)
    Параметр Endianness формата : Big
    Идентификатор кодека : A_AC3
    Продолжительность : 1 ч. 45 м.
    Вид битрейта : Постоянный
    Битрейт : 448 Кбит/сек
    Каналы : 6 каналов
    Расположение каналов : Front: L C R, Side: L R, LFE
    Частота : 48, 0 КГц
    Битовая глубина : 16 бит
    Метод сжатия : С потерями
    Размер потока : 337 Мбайт (12%)
    Заголовок : AC3, 6 ch, 448 Kbps, Гаврилов
    Язык : Russian
    Default : Нет
    Forced : Нет
    Аудио #3
    Идентификатор : 4
    Формат : AC-3
    Формат/Информация : Audio Coding 3
    Расширение режима : CM (complete main)
    Параметр Endianness формата : Big
    Идентификатор кодека : A_AC3
    Продолжительность : 1 ч. 45 м.
    Вид битрейта : Постоянный
    Битрейт : 448 Кбит/сек
    Каналы : 6 каналов
    Расположение каналов : Front: L C R, Side: L R, LFE
    Частота : 48, 0 КГц
    Битовая глубина : 16 бит
    Метод сжатия : С потерями
    Размер потока : 337 Мбайт (12%)
    Заголовок : AC3, 6 ch, 448 Kbps, Яроцкий
    Язык : Russian
    Default : Нет
    Forced : Нет
    Текст #1
    Идентификатор : 5
    Формат : UTF-8
    Идентификатор кодека : S_TEXT/UTF8
    Идентификатор кодека/Информация : UTF-8 Plain Text
    Язык : Russian
    Default : Нет
    Forced : Нет
    Текст #2
    Идентификатор : 6
    Формат : UTF-8
    Идентификатор кодека : S_TEXT/UTF8
    Идентификатор кодека/Информация : UTF-8 Plain Text
    Язык : English
    Default : Нет
    Forced : Нет
    Меню
    00: 00: 00.000 : en: Chapter 01
    00: 02: 47.120 : en: Chapter 02
    00: 06: 55.600 : en: Chapter 03
    00: 09: 16.400 : en: Chapter 04
    00: 12: 58.920 : en: Chapter 05
    00: 14: 50.800 : en: Chapter 06
    00: 18: 01.040 : en: Chapter 07
    00: 22: 09.080 : en: Chapter 08
    00: 25: 07.120 : en: Chapter 09
    00: 26: 29.640 : en: Chapter 10
    00: 30: 21.320 : en: Chapter 11
    00: 33: 41.400 : en: Chapter 12
    00: 35: 36.480 : en: Chapter 13
    00: 37: 35.360 : en: Chapter 14
    00: 40: 35.920 : en: Chapter 15
    00: 45: 20.440 : en: Chapter 16
    00: 48: 25.960 : en: Chapter 17
    00: 52: 28.600 : en: Chapter 18
    00: 53: 17.520 : en: Chapter 19
    00: 56: 04.240 : en: Chapter 20
    01: 00: 36.240 : en: Chapter 21
    01: 02: 56.360 : en: Chapter 22
    01: 08: 20.680 : en: Chapter 23
    01: 11: 06.080 : en: Chapter 24
    01: 15: 42.720 : en: Chapter 25
    01: 19: 18.000 : en: Chapter 26
    01: 23: 14.160 : en: Chapter 27
    01: 25: 57.480 : en: Chapter 28
    01: 30: 30.840 : en: Chapter 29
    01: 36: 12.680 : en: Chapter 30
    01: 39: 30.120 : en: Chapter 31


    Онлайн видео Наркобарон


    Размер скачиваемого торрента: 2.77 GB (2970464761 Bytes)

    Наркобарон/Narc (2002) HDRip-AVC | P, A
    загрузка...
    Рейтинг →
     (голосов: 1, оценка 3/5, голосовать можно 1 раз )

    Другие торренты по теме:

  • Наркобарон / Наркокоп / Narc (2002) HDRip от Scarabey | Р скачать через торрент бесплатно
  • Наркобарон / Наркоотдел / Narc (2002) BDRip от HQCLUB торрент скачать бесплатно


    • Комментарии (0):

      Информация

      Информация

        Посетители, находящиеся в группе Гости, не могут оставлять комментарии в данной новости.

        ↓ Меню



        ↓ Опрос

        А Вы добавили сайт в закладки?
        Да
        Не


        Top 10 за неделю (Фильмы)